Классический форум-трекер
canvas not supported
Нас вместе: 4 074 642

Звёздные собаки: Белка и Стрелка [2D] (2010) BDRip [720p]


 
 
RSS
Начать новую тему   Ответить на тему    Торрент-трекер NNM-Club -> Мультфильмы -> Отечественные Мультфильмы (HD, UHD, UHD-LQ, DVD, Сборники)
Автор Сообщение
Gevolt ®
Update 100+
Стаж: 7 лет 8 мес.
Сообщений: 890
Ratio: 4877,064
Раздал: 196,5 TB
Поблагодарили: 92978
100%
Откуда: Нижний Новгород
Звёздные собаки: Белка и Стрелка [2D] (2010) BDRip [720p]
Русское название: Звёздные собаки: Белка и Стрелка
Год выпуска: 2010
Страна: Россия
Жанр: Мультфильм, комедия, приключения

Режиссер: Святослав Ушаков, Инна Евланникова
Персонажи: Анна Большова (Белка, озвучка), Елена Яковлева (Стрелка, озвучка), Евгений Миронов (Веня, озвучка), Сергей Гармаш (Казбек, озвучка), Александр Баширов (Мопс, озвучка), Руслан Кулешов (Пушок, озвучка), Сергей Юшкевич (Кот-психиатр, озвучка), Николай Сморчков (профессор, озвучка), Всеволод Кузнецов (кот/медведь, озвучка), Жанна Никонова (болонка/обезьяна, озвучка), Радик Мухаметзянов (голос по рации/громкоговорителю/телевизору, озвучка), Владимир Довжик (попугай/пират, озвучка)

Описание: В космос? На ракете? Белка и Стрелка вряд ли об этом мечтали. Космос сам ворвался в их жизнь. Собаки вместе с крысом Веней и другими мохнатыми претендентами в космонавты случайно оказались в эпицентре исторических событий.



Продолжительность: 01:28:09
Язык: Оригинал (Русский)
Субтитры: Отсутствуют

Качество видео: BDRip
Видеокодек: MPEG-4 AVC/H.264
Битрейт видео: ~4 704 Кбит/с
Размер кадра: 1280х720
Аудио 1: Русский: DTS, 6 ch, 1510 Кбит/с
Аудио 2: Русский: AC3, 6 ch, 448 Кбит/с
General
Unique ID : 209192657305217829845231340169683540126 (0x9D610A501E3DAF24BD94E3262E78189E)
Complete name : D:\Belka.i.Strelka.(2D).2010.720p.BDRip.mkv
Format : Matroska
Format version : Version 1
File size : 4.18 GiB
Duration : 1h 28mn
Overall bit rate : 6 796 Kbps
Movie name : Rip by Diablo07
Encoded date : UTC 2010-04-26 16:11:42
Writing application : mkvmerge v2.2.0 ('Turn It On Again') built on Mar 4 2008 13:20:25
Writing library : libebml v0.7.7 + libmatroska v0.8.1

Video
ID : 1
Format : AVC
Format/Info : Advanced Video Codec
Format profile : High@L3.1
Format settings, CABAC : Yes
Format settings, ReFrames : 4 frames
Codec ID : V_MPEG4/ISO/AVC
Duration : 1h 28mn
Bit rate : 4 704 Kbps
Nominal bit rate : 5 000 Kbps
Width : 1 280 pixels
Height : 720 pixels
Display aspect ratio : 16:9
Frame rate mode : Constant
Frame rate : 23.976 fps
Color space : YUV
Chroma subsampling : 4:2:0
Bit depth : 8 bits
Scan type : Progressive
Bits/(Pixel*Frame) : 0.213
Stream size : 2.90 GiB (69%)
Title : Belka i Strelka
Writing library : x264 core 92 r1510 33d382a
Encoding settings : cabac=1 / ref=3 / deblock=1:0:0 / analyse=0x3:0x113 / me=hex / subme=7 / psy=1 / psy_rd=1.00:0.00 / mixed_ref=1 / me_range=16 / chroma_me=1 / trellis=1 / 8x8dct=1 / cqm=0 / deadzone=21,11 / fast_pskip=1 / chroma_qp_offset=-2 / threads=3 / sliced_threads=0 / nr=0 / decimate=1 / interlaced=0 / constrained_intra=0 / bframes=3 / b_pyramid=2 / b_adapt=1 / b_bias=0 / direct=1 / wpredb=1 / wpredp=2 / keyint=250 / keyint_min=25 / scenecut=40 / intra_refresh=0 / rc_lookahead=40 / rc=abr / mbtree=1 / bitrate=5000 / ratetol=1.0 / qcomp=0.60 / qpmin=10 / qpmax=51 / qpstep=4 / ip_ratio=1.40 / aq=1:1.00
Default : Yes
Forced : No

Audio #1
ID : 2
Format : DTS
Format/Info : Digital Theater Systems
Mode : 16
Format settings, Endianness : Big
Codec ID : A_DTS
Duration : 1h 28mn
Bit rate mode : Constant
Bit rate : 1 509 Kbps
Channel(s) : 6 channels
Channel positions : Front: L C R, Side: L R, LFE
Sampling rate : 48.0 KHz
Bit depth : 24 bits
Compression mode : Lossy
Stream size : 951 MiB (22%)
Title : DTS
Language : Russian
Default : No
Forced : No

Audio #2
ID : 3
Format : AC-3
Format/Info : Audio Coding 3
Mode extension : CM (complete main)
Format settings, Endianness : Big
Codec ID : A_AC3
Duration : 1h 28mn
Bit rate mode : Constant
Bit rate : 448 Kbps
Channel(s) : 6 channels
Channel positions : Front: L C R, Side: L R, LFE
Sampling rate : 48.0 KHz
Bit depth : 16 bits
Compression mode : Lossy
Stream size : 282 MiB (7%)
Title : AC 3
Language : Russian
Default : Yes
Forced : No

Все раздачи Звёздные собаки: Белка и Стрелка на NNM-CLUB
Скриншоты:

Время раздачи: С 09:00 до 24:00
[NNM-Club.ru]_Belka.i.Strelka.(2D).2010.720p.BDRip.mkv.torrent
 Торрент: Платиновая раздача  Зарегистрирован
 
Скачать


Примагнититься
 Зарегистрирован:   13 Апр 2013 19:15:40
 Размер:   4,18 GB  (
 Рейтинг:   4,5 (Голосов: 35)
 Поблагодарили:   177
 Проверка:   Оформление проверено модератором 13 Апр 2013 19:25:21
Как cкачать  ·  Как раздать  ·  Правильно оформить  ·  Поднять ратио!  
Показать сообщения:   
Начать новую тему   Ответить на тему    Торрент-трекер NNM-Club -> Мультфильмы -> Отечественные Мультфильмы (HD, UHD, UHD-LQ, DVD, Сборники) Часовой пояс: GMT + 3
Страница 1 из 1