Классический форум-трекер
canvas not supported
Нас вместе: 4 079 211

Приходите завтра (1962) BDRip [576p] iPad


 
 
RSS
Начать новую тему   Ответить на тему    Торрент-трекер NNM-Club -> Аудио и Видео -> Отечественное видео для устройств Apple
Автор Сообщение
shax87 ®
RG Apple
 
Стаж: 8 лет 6 мес.
Сообщений: 215
Ratio: 445,815
Раздал: 25,15 TB
Поблагодарили: 17288
100%
Откуда: Санкт-Петербург
russia.gif
Приходите завтра (1962) BDRip [576p] iPad
Название: Приходите завтра
Год: 1962
Страна: СССР
Жанр: мелодрама, комедия

Продолжительность: 01:36:44
Аудиодорожка: русская
Субтитры: нет
Навигация по главам: есть

Режиссёр: Евгений Ташков
Сценарий: Евгений Ташков
В ролях: Екатерина Савинова, Анатолий Папанов, Борис Бибиков, Антонина Максимова, Юрий Горобец, Надежда Животова, Александр Ширвиндт, Юрий Белов, Александра Денисова, Борис Коковкин

Описание: Кинокомедия о судьбе простой, талантливой девушки Фроси, приехавшей учиться в Москву из небольшого сибирского села, о том, как она добилась поступления в консерваторию.



Качество видео: BDRip
Исходник: Blu-ray disc
Формат: MP4 (контейнер m4v)
Видео: AVC, 768x576 (4:3) at 23.976 fps, AVC at 1589 kbps avg, 0.150 bit/pixel
Аудио: 48 kHz, AAC, 2ch, 128 Kbps | Русский | Оригинальный
Общее
Полное имя : F:\Downloads\Prikhodite zavtra.1962.BDRip.iPad.m4v
Формат : MPEG-4
Профиль формата : Base Media / Version 2
Идентификатор кодека : mp42
Размер файла : 1,17 Гбайт
Продолжительность : 1 ч. 36 м.
Режим общего битрейта : Переменный
Общий поток : 1729 Кбит/сек
Название фильма : Приходите завтра
Исполнитель : Евгений Ташков
Жанр : Comedy
Дата записи : UTC 1963-04-19 07:00:00
Дата кодирования : UTC 2013-09-16 12:44:05
Дата пометки : UTC 2013-09-19 09:40:48
Программа кодирования : HandBrake 0.9.8 2012071700

Видео
Идентификатор : 1
Формат : AVC
Формат/Информация : Advanced Video Codec
Профиль формата : High@L3.1
Параметр CABAC формата : Да
Параметр ReFrames формата : 8 кадров
Идентификатор кодека : avc1
Идентификатор кодека/Информация : Advanced Video Coding
Продолжительность : 1 ч. 36 м.
Вид битрейта : Переменный
Битрейт : 1589 Кбит/сек
Ширина : 768 пикселей
Высота : 576 пикселей
Соотношение сторон : 4:3
Режим частоты кадров : Переменный
Частота кадров : 23,976 кадра/сек
Минимальная частота кадров : 23,974 кадра/сек
Максимальная частота кадров : 23,981 кадра/сек
Цветовое пространство : YUV
Субдискретизация насыщенности : 4:2:0
Битовая глубина : 8 бит
Тип развёртки : Прогрессивная
Бит/(Пиксели*Кадры) : 0.150
Размер потока : 1,07 Гбайт (92%)
Библиотека кодирования : x264 core 120
Настройки программы : cabac=1 / ref=9 / deblock=1:-1:-1 / analyse=0x3:0x133 / me=umh / subme=9 / psy=1 / psy_rd=1.00:0.15 / mixed_ref=1 / me_range=32 / chroma_me=1 / trellis=2 / 8x8dct=1 / cqm=0 / deadzone=21,11 / fast_pskip=1 / chroma_qp_offset=-3 / threads=6 / sliced_threads=0 / nr=0 / decimate=1 / interlaced=0 / bluray_compat=0 / constrained_intra=0 / bframes=9 / b_pyramid=1 / b_adapt=2 / b_bias=0 / direct=1 / weightb=1 / open_gop=0 / weightp=2 / keyint=240 / keyint_min=24 / scenecut=40 / intra_refresh=0 / rc_lookahead=40 / rc=crf / mbtree=1 / crf=18.0 / qcomp=0.60 / qpmin=3 / qpmax=69 / qpstep=4 / ip_ratio=1.40 / aq=1:0.90
Дата кодирования : UTC 2013-09-16 12:44:05
Дата пометки : UTC 2013-09-16 15:19:26
Основные цвета : BT.709
Характеристики трансфера : BT.709
Коэффициенты матрицы : BT.709

Аудио
Идентификатор : 2
Формат : AAC
Формат/Информация : Advanced Audio Codec
Профиль формата : LC
Идентификатор кодека : 40
Продолжительность : 1 ч. 36 м.
Вид битрейта : Переменный
Битрейт : 128 Кбит/сек
Максимальный битрейт : 257 Кбит/сек
Каналы : 2 канала
Расположение каналов : Front: L R
Частота : 48,0 КГц
Метод сжатия : С потерями
Задержка видео : 83 мс.
Размер потока : 88,6 Мбайт (7%)
Язык : English
Дата кодирования : UTC 2013-09-16 12:44:05
Дата пометки : UTC 2013-09-16 15:19:22

Текст
Идентификатор : 4
Формат : Apple text
Идентификатор кодека : text
Продолжительность : 1 ч. 36 м.
Вид битрейта : Переменный
Битрейт : 1 бит/сек
Задержка видео : 83 мс.
Размер потока : 423 байт (0%)
Дата кодирования : UTC 2013-09-19 09:40:48
Дата пометки : UTC 2013-09-19 09:40:48
x264 [info]: frame I:712 Avg QP:14.99 size: 68287
x264 [info]: frame P:27411 Avg QP:17.94 size: 21111
x264 [info]: frame B:111055 Avg QP:20.83 size: 4736
x264 [info]: consecutive B-frames: 0.8% 0.8% 3.2% 22.6% 17.4% 44.3% 6.0% 3.0% 1.3% 0.6%
x264 [info]: mb I I16..4: 6.4% 70.2% 23.4%
x264 [info]: mb P I16..4: 0.5% 7.9% 1.8% P16..4: 41.4% 22.3% 17.8% 2.4% 0.9% skip: 5.0%
x264 [info]: mb B I16..4: 0.0% 0.5% 0.1% B16..8: 43.5% 8.9% 2.1% direct: 4.5% skip:40.3% L0:43.4% L1:44.1% BI:12.5%
x264 [info]: 8x8 transform intra:76.4% inter:58.0%
x264 [info]: coded y,uvDC,uvAC intra: 94.0% 0.0% 0.0% inter: 24.3% 0.0% 0.0%
x264 [info]: i16 v,h,dc,p: 29% 13% 17% 42%
x264 [info]: i8 v,h,dc,ddl,ddr,vr,hd,vl,hu: 14% 9% 5% 9% 14% 14% 13% 12% 12%
x264 [info]: i4 v,h,dc,ddl,ddr,vr,hd,vl,hu: 13% 8% 3% 8% 15% 16% 13% 12% 12%
x264 [info]: i8c dc,h,v,p: 100% 0% 0% 0%
x264 [info]: Weighted P-Frames: Y:22.9% UV:0.0%
x264 [info]: ref P L0: 49.2% 15.7% 13.0% 6.9% 5.0% 4.0% 3.4% 2.2% 0.6% 0.0%
x264 [info]: ref B L0: 78.9% 8.9% 5.3% 2.5% 2.0% 1.6% 0.9%
x264 [info]: ref B L1: 93.5% 6.5%
x264 [info]: kb/s:1589.44
Media Type: Movie
Sort Name: Приходите завтра
XID: Apple:vendor_id:1963-43250
Content ID: 43250
ScreenWriters: Евгений Ташков
Producers: Серафима Бениова
Director: Евгений Ташков
Cast: Екатерина Савинова, Анатолий Папанов, Борис Бибиков, Антонина Максимова, Юрий Горобец, Надежда Животова, Александр Ширвиндт, Юрий Белов, Александра Денисова, Борис Коковкин
Long Description: Кинокомедия о судьбе простой, талантливой девушки Фроси, приехавшей учиться в Москву из небольшого сибирского села, о том, как она добилась поступления в консерваторию.
Description: Кинокомедия о судьбе простой, талантливой девушки Фроси, приехавшей учиться в Москву из небольшого сибирского села, о том, как она добилась поступления в консерваторию.
Release Date: 1963-04-19T07:00:00Z
Genre: Comedy
Artist: Евгений Ташков
Name: Приходите завтра
Скриншоты:

Время раздачи: 24/7
[NNM-Club.me]_Prikhodite zavtra.1962.BDRip.iPad.m4v.torrent
 Торрент: Платиновая раздача  Зарегистрирован
 
Скачать


Примагнититься
 Зарегистрирован:   19 Сен 2013 12:56:15
 Размер:   1,17 GB  (
 Рейтинг:   4,9 (Голосов: 27)
 Поблагодарили:   66
 Проверка:   Оформление проверено модератором 19 Сен 2013 18:40:03
Как cкачать  ·  Как раздать  ·  Правильно оформить  ·  Поднять ратио!  
Kiruy
Стаж: 7 лет 10 мес.
Сообщений: 120
Ratio: 126,01
100%
Так есть же в цвете, или в лом было искать, переводить в другой формат?

 !  Примечание от denver7979:
Предупреждаю устно.
Добрая половина пользователей ценят и ищут нашу классику именно в оригинале без каких либо реставраций. Будьте рассудительнее.
Помните, раздачи на нашем трекере ни в коей мере не предназначены для удовлетворения ваших личных запросов, если вам не нравится раздача или скорость раздачи - попробуйте поискать что-либо подходящее вам в другом месте без негативных комментариев здесь.
shax87 ®
RG Apple
 
Стаж: 8 лет 6 мес.
Сообщений: 215
Ratio: 445,815
Раздал: 25,15 TB
Поблагодарили: 17288
100%
Откуда: Санкт-Петербург
russia.gif
Рип делал из оригинального Blu-ray disc'a. Если есть потребность в цветной версии, могу сделать из исходника HDTV 1080i.
3ton
Стаж: 12 лет 7 мес.
Сообщений: 4
Ratio: 13,411
4.6%
russia.gif
А возможно ли сделать релиз 1080?
3ton
Стаж: 12 лет 7 мес.
Сообщений: 4
Ratio: 13,411
4.6%
russia.gif
А возможно ли сделать релиз 1080? Присоединяюсь к вопросу...
Показать сообщения:   
Начать новую тему   Ответить на тему    Торрент-трекер NNM-Club -> Аудио и Видео -> Отечественное видео для устройств Apple Часовой пояс: GMT + 3
Страница 1 из 1