Классический форум-трекер
canvas not supported
Нас вместе: 4 079 303

Макс / Max (2002) WEB-DLRip [H.264/720p-LQ] [Hi10P]


 
 
RSS
Начать новую тему   Ответить на тему    Торрент-трекер NNM-Club -> Зарубежное кино -> Зарубежные Фильмы (HD*Rip/LQ, DVDRip, SATRip, VHSRip)
Автор Сообщение
sinteros ®
Стаж: 10 лет 8 мес.
Сообщений: 548
Ratio: 110,544
Поблагодарили: 58113
100%
Макс / Max (2002) WEB-DLRip [H.264/720p-LQ] [Hi10P]
Год выпуска: 2002
Жанр: Драма, Военный

Описание фильма: 1918 год. Еврей Макс Ротман, ветеран Первой Мировой войны, а ныне — преуспевающий торговец произведениями искусства, ищет таланты на улицах Мюнхена.
Благодаря случайной встрече Макс знакомится с интересным молодым художником, нищим капралом Адольфом Гитлером. Взяв его под свое крыло, Макс надеется подарить Гитлеру славу и успех.
Однако их бурная дружба приобретает мрачный оборот, когда становится ясно, что антисемит Гитлер готов променять искусство живописи на искусство политики и власти — новое искусство, которое вскоре будет вершить судьбы миллионов людей…

Режиссер: Менно Мейес

Актеры: Джон Кьюсак, Ноа Тейлор, Лили Собески, Молли Паркер, Ульрих Томсен, Дэвид Хорович, Джанет Сузман, Андраш Стол, Джон Грилло, Анна Най

Качество видео: WEB-DLRip
Продолжительность: 01:48:42
Перевод: Профессиональный (двухголосый закадровый)
Оригинальная аудио дорожка: Английская
Язык субтитров: Английский
Вид субтитров: Вшитые



Формат: MKV
Видео: MPEG-4 AVC/H.264, 1280x720(16:9), 23.976fps, 2167 Кbps, 0.098bit/pixel
Аудио 1: DVO Russian, AC3, 6ch, 48 kHz, 448 kbps kbps, (Двухголосый R5)
Аудио 2: English, AC3, 6ch, 48 kHz, 448 kbps, (Оригинал)
Общее
Формат : Matroska
Версия формата : Version 4 / Version 2
Размер файла : 2,37 Гбайт
Продолжительность : 1 ч. 48 м.
Общий поток : 3125 Кбит/сек
Название фильма : Макс / Max (2002) WEB-DLRip-AVC (Sinteros)
Программа кодирования : mkvmerge v6.5.0 ('Isn't she lovely') built on Oct 20 2013 12:50:05
Библиотека кодирования : libebml v1.3.0 + libmatroska v1.4.1
Attachment : Yes

Видео
Идентификатор : 1
Формат : AVC
Формат/Информация : Advanced Video Codec
Профиль формата : High 10@L4.1
Параметр CABAC формата : Да
Параметр ReFrames формата : 11 кадров
Идентификатор кодека : V_MPEG4/ISO/AVC
Продолжительность : 1 ч. 48 м.
Битрейт : 2167 Кбит/сек
Ширина : 1280 пикселей
Высота : 720 пикселей
Соотношение сторон : 16:9
Режим частоты кадров : Постоянный
Частота кадров : 23,976 кадра/сек
Цветовое пространство : YUV
Субдискретизация насыщенности : 4:2:0
Битовая глубина : 10 бит
Тип развёртки : Прогрессивная
Бит/(Пиксели*Кадры) : 0.098
Размер потока : 1,65 Гбайт (69%)
Заголовок : MPEG-4 AVC/H.264, 1280x720(16:9), 23.976fps, 2166 Кbps, 0.098bit/pixel
Библиотека кодирования : x264 core 133 r2334 a3ac64b
Настройки программы : cabac=1 / ref=11 / deblock=1:-1:-1 / analyse=0x3:0x133 / me=tesa / subme=10 / psy=1 / psy_rd=1.00:0.15 / mixed_ref=1 / me_range=24 / chroma_me=1 / trellis=2 / 8x8dct=1 / cqm=0 / deadzone=21,11 / fast_pskip=1 / chroma_qp_offset=-3 / threads=12 / lookahead_threads=1 / sliced_threads=0 / nr=0 / decimate=1 / interlaced=0 / bluray_compat=0 / constrained_intra=0 / bframes=6 / b_pyramid=2 / b_adapt=2 / b_bias=0 / direct=3 / weightb=1 / open_gop=0 / weightp=2 / keyint=250 / keyint_min=23 / scenecut=40 / intra_refresh=0 / rc_lookahead=60 / rc=crf / mbtree=1 / crf=18.0 / qcomp=0.60 / qpmin=0 / qpmax=81 / qpstep=4 / ip_ratio=1.40 / aq=1:1.00
Язык : English
Default : Да
Forced : Нет

Аудио #1
Идентификатор : 2
Формат : AC-3
Формат/Информация : Audio Coding 3
Расширение режима : CM (complete main)
Параметр Endianness формата : Big
Идентификатор кодека : A_AC3
Продолжительность : 1 ч. 48 м.
Вид битрейта : Постоянный
Битрейт : 448 Кбит/сек
Каналы : 6 каналов
Расположение каналов : Front: L C R, Side: L R, LFE
Частота : 48,0 КГц
Битовая глубина : 16 бит
Метод сжатия : С потерями
Размер потока : 348 Мбайт (14%)
Заголовок : DVO Russian, AC3, 6ch, 48 kHz, 448 kbps kbps, (Двухголосый R5)
Язык : Russian
Default : Да
Forced : Нет

Аудио #2
Идентификатор : 3
Формат : AC-3
Формат/Информация : Audio Coding 3
Расширение режима : CM (complete main)
Параметр Endianness формата : Big
Идентификатор кодека : A_AC3
Продолжительность : 1 ч. 48 м.
Вид битрейта : Постоянный
Битрейт : 448 Кбит/сек
Каналы : 6 каналов
Расположение каналов : Front: L C R, Side: L R, LFE
Частота : 48,0 КГц
Битовая глубина : 16 бит
Метод сжатия : С потерями
Размер потока : 348 Мбайт (14%)
Заголовок : English, AC3, 6ch, 48 kHz, 448 kbps, (Оригинал)
Язык : English
Default : Нет
Forced : Нет

Текст
Идентификатор : 4
Формат : UTF-8
Идентификатор кодека : S_TEXT/UTF8
Идентификатор кодека/Информация : UTF-8 Plain Text
Язык : English
Default : Нет
Forced : Нет

Меню
00:00:00.000 : en:1
00:06:08.000 : en:2
00:14:05.000 : en:3
00:19:55.000 : en:4
00:27:11.000 : en:5
00:37:40.000 : en:6
00:47:35.000 : en:7
00:54:47.000 : en:8
01:03:19.000 : en:9
01:12:25.000 : en:10
01:21:33.000 : en:11
01:27:50.000 : en:12
01:37:08.000 : en:13
01:43:54.000 : en:14
Примечание: Рип в High 10 Profile, в настоящее время не поддерживается большинством аппаратных проигрывателей, поэтому предназначен исключительно для воспроизведения на ПК. Для корректного воспроизведения может потребоваться обновление ПО.

Скриншоты:




Время раздачи: 24/7 (жду до 10-15 скачавших, а дальше могу уйти с радачи)
[NNM-Club.me]_Maks (2002) WEB-DL-AVC.mkv.torrent
 Торрент: Платиновая раздача  Зарегистрирован
 
Скачать


Примагнититься
 Зарегистрирован:   22 Ноя 2013 16:39:40
 Размер:   2,37 GB  (
 Рейтинг:   4,6 (Голосов: 16)
 Поблагодарили:   86
 Проверка:   Оформление проверено модератором 23 Ноя 2013 21:44:30
Как cкачать  ·  Как раздать  ·  Правильно оформить  ·  Поднять ратио!  
MPSS
Стаж: 11 лет 7 мес.
Сообщений: 232
Ratio: 8,188
Раздал: 40,91 TB
100%
russia.gif
Как фильм?
Показать сообщения:   
Начать новую тему   Ответить на тему    Торрент-трекер NNM-Club -> Зарубежное кино -> Зарубежные Фильмы (HD*Rip/LQ, DVDRip, SATRip, VHSRip) Часовой пояс: GMT + 3
Страница 1 из 1