Классический форум-трекер
canvas not supported
Нас вместе: 4 094 984

Discovery. Беар Гриллс: Как остаться в живых / Bear Grylls: How To Stay Alive (2012) HDTVRip [H.264/720p-LQ]


 
 
RSS
Начать новую тему   Ответить на тему    Торрент-трекер NNM-Club -> Зарубежные TV-бренды -> Discovery
Автор Сообщение
Отец Лоренцо ®
Uploader 1000+, Сталкер
Стаж: 8 лет 2 мес.
Сообщений: 4039
Ratio: 7393,141
Раздал: 1,0172 PB
Поблагодарили: 122084
100%
Откуда: Харьков, Украина
Discovery. Беар Гриллс: Как остаться в живых / Bear Grylls: How To Stay Alive (2012) HDTVRip [H.264/720p-LQ]
Режиссер / Телекомпания: / Discovery
Страна: Великобритания
Год выпуска: 2012
Жанр: Документальный, выживание, экстрим

Описание: От пурги до страшной жары, от гор до пустынь — Беар Гриллс прошел через самые негостеприимные места в мире. В чем секрет его умения выжить?

Продолжительность: 00:44:04

Перевод: Одноголосый закадровый (профессиональный)

Видеокодек: MPEG-4 AVC/H.264
Битрейт видео: ~3 517 Кбит/с
Размер кадра: 1280 x 720
Качество видео: HDTVRip [720p-LQ]
Аудио:
1. [русский] AC3, 2.0 ch, 192 Кбит/с
2. [english] AС3, 5.1 ch, 384 Кбит/с
General
Unique ID : 192686405560582195902624497501104053252 (0x90F60D4507637FACBD21D1BE48A51C04)
Complete name : D:\TORRENTS\!!! РЕЛИЗЫ\Bear.Grylls.How.To.Stay.Alive.HDTVRip.720p.mkv
Format : Matroska
Format version : Version 4 / Version 2
File size : 1.29 GiB
Duration : 44mn 4s
Overall bit rate : 4 176 Kbps
Movie name : Беар Гриллс - Как Остаться В Живых. Bear Grylls - How To Stay Alive [720p] by SOFCJ [ .org]
Encoded date : UTC 2010-02-22 21:41:31
Writing application : mkvmerge v5.9.0 ('On The Loose') built on Dec 9 2012 15:37:01
Writing library : libebml v1.3.0 + libmatroska v1.4.0

Video
ID : 1
Format : AVC
Format/Info : Advanced Video Codec
Format profile : High@L4.1
Format settings, CABAC : Yes
Format settings, ReFrames : 5 frames
Codec ID : V_MPEG4/ISO/AVC
Duration : 44mn 4s
Bit rate : 3 517 Kbps
Width : 1 280 pixels
Height : 720 pixels
Display aspect ratio : 16:9
Frame rate mode : Constant
Frame rate : 25.000 fps
Color space : YUV
Chroma subsampling : 4:2:0
Bit depth : 8 bits
Scan type : Progressive
Bits/(Pixel*Frame) : 0.153
Stream size : 1.08 GiB (84%)
Writing library : x264 core 129 r2230 1cffe9f
Encoding settings : cabac=1 / ref=5 / deblock=1:0:0 / analyse=0x3:0x113 / me=umh / subme=8 / psy=1 / psy_rd=1.00:0.00 / mixed_ref=1 / me_range=16 / chroma_me=1 / trellis=1 / 8x8dct=1 / cqm=0 / deadzone=21,11 / fast_pskip=1 / chroma_qp_offset=-2 / threads=18 / lookahead_threads=3 / sliced_threads=0 / nr=0 / decimate=1 / interlaced=0 / bluray_compat=0 / constrained_intra=0 / bframes=3 / b_pyramid=2 / b_adapt=2 / b_bias=0 / direct=3 / weightb=1 / open_gop=0 / weightp=2 / keyint=250 / keyint_min=25 / scenecut=40 / intra_refresh=0 / rc_lookahead=50 / rc=crf / mbtree=1 / crf=21.0 / qcomp=0.60 / qpmin=0 / qpmax=69 / qpstep=4 / ip_ratio=1.40 / aq=1:1.00
Default : Yes
Forced : No
Matrix coefficients : BT.709

Audio #1
ID : 2
Format : AC-3
Format/Info : Audio Coding 3
Mode extension : CM (complete main)
Format settings, Endianness : Big
Codec ID : A_AC3
Duration : 44mn 4s
Bit rate mode : Constant
Bit rate : 192 Kbps
Channel(s) : 2 channels
Channel positions : Front: L R
Sampling rate : 48.0 KHz
Bit depth : 16 bits
Compression mode : Lossy
Stream size : 60.5 MiB (5%)
Language : Russian
Default : No
Forced : No

Audio #2
ID : 3
Format : AC-3
Format/Info : Audio Coding 3
Mode extension : CM (complete main)
Format settings, Endianness : Big
Codec ID : A_AC3
Duration : 44mn 4s
Bit rate mode : Constant
Bit rate : 384 Kbps
Channel(s) : 6 channels
Channel positions : Front: L C R, Side: L R, LFE
Sampling rate : 48.0 KHz
Bit depth : 16 bits
Compression mode : Lossy
Delay relative to video : 32ms
Stream size : 121 MiB (9%)
Language : English
Default : Yes
Forced : No
Скриншоты:





Пожалуйста, не уходите с раздачи - помогите докачать другим. Если понравился релиз - жмите кнопку "Спасибо"! :приветствую:

Время раздачи: 24 / 7

"Беар Гриллс: Как остаться в живых / Bear Grylls: How To Stay Alive" на NoNaMe Club
[NNM-Club.me]_Bear.Grylls.How.To.Stay.Alive.HDTVRip.720p.mkv.torrent
 Торрент: Платиновая раздача  Зарегистрирован
 
Скачать


Примагнититься
 Зарегистрирован:   06 Янв 2014 23:51:52
 Размер:   1,29 GB  (
 Рейтинг:   4,8 (Голосов: 40)
 Поблагодарили:   149
 Проверка:   Оформление проверено модератором 07 Янв 2014 00:28:48
Как cкачать  ·  Как раздать  ·  Правильно оформить  ·  Поднять ратио!  
Shaver_G
Стаж: 6 лет 10 мес.
Сообщений: 60
Ratio: 445,826
100%
Откуда: Russia
russia.gif
Хорошее видео.
maxfax67
Стаж: 7 лет 11 мес.
Сообщений: 91
Ratio: 3,677
27.62%
germany.gif
где перевод, а если языка не знал?
Отец Лоренцо ®
Uploader 1000+, Сталкер
Стаж: 8 лет 2 мес.
Сообщений: 4039
Ratio: 7393,141
Раздал: 1,0172 PB
Поблагодарили: 122084
100%
Откуда: Харьков, Украина
maxfax67 писал(а): Перейти к сообщению
где перевод, а если языка не знал?

Перевод есть. Просто переключитесь при просмотре на другую звуковую дорожку :D
hemmuli
Стаж: 8 лет 6 мес.
Сообщений: 29
Ratio: 11,688
100%
russia.gif
Если честно, то фильм не о чем. Есть некоторые интересные вещи, но не более.
Показать сообщения:   
Начать новую тему   Ответить на тему    Торрент-трекер NNM-Club -> Зарубежные TV-бренды -> Discovery Часовой пояс: GMT + 3
Страница 1 из 1