Классический форум-трекер
canvas not supported
Нас вместе: 4 093 131

Настоящий детектив / True Detective (2014) HDTVRip (Сезон 1 / Серии 1-8 из 8) Кубик в Кубе


Страницы:  1, 2  След. 
 
RSS
Начать новую тему   Ответить на тему    Торрент-трекер NNM-Club -> Зарубежные сериалы
Автор Сообщение
DriverV ®
Модератор Сериалов
Uploader 500+
Стаж: 9 лет 6 мес.
Сообщений: 15520
Ratio: 24K
Поблагодарили: 671381
100%
nnm-club.gif
Настоящий детектив / True Detective (2014) HDTVRip (Сезон 1 / Серии 1-8 из 8) Кубик в Кубе
Год выпуска: 2014
Страна: США
Жанр: драма, криминал

Перевод: Двухголосый закадровый, профессиональный - Кубик в Кубе


Дата мировой премьеры: 12 января 2014

Режиссер: Кэри Фукунага
Актеры: Мэттью МакКонахи, Вуди Харрельсон, Мишель Монахэн, Брюс Эллиотт, Рендал Гонсалес, Тори Киттлз, Дэвид Стивен Митчелл, Майкл Поттс, Эрик Прайс, Мэдисон Вульф и др.

Описание фильма:
Главные герои — два детектива. В 2012 году в штате Луизиана повторно открывается дело о серийном убийстве в 1995 году. Детективы познакомились 17 лет назад, когда началось расследование, и с тех пор вместе охотились за киллером. Повествование будет вестись как в наше время, так и откатится назад, в середину девяностых.

Продолжительность: ~01:00:00 серия
Качество видео: HDTVRip

Видеокодек: Xvid
Формат: AVI
Битрейт видео: ~1350 kb/s
Размер кадра: 720х400 (16:9)
Аудио Rus: (MPEG Layer 3, 48,0 kHz, 2 ch, 128 kb/s) - двухголосый закадровый
Аудио Eng: (MPEG Layer 3, 48,0 kHz, 2 ch, 128 kb/s) - оригинал

Сэмпл

Все раздачи "Настоящий детектив / True Detective"

ВНИМАНИЕ! В сериале присутствует ненормативная лексика.
Возрастное ограничение 18+
Общее
Полное имя : D:\Настоящий детектив (сезон 1) True Detective (2014) HDTVRip - Кубик в Кубе\True.Detectiv.s01e01.HDTVRip.XviD.Rus.Eng..avi
Формат : AVI
Формат/Информация : Audio Video Interleave
Размер файла : 700 Мбайт
Продолжительность : 1 ч. 0 м.
Общий поток : 1623 Кбит/сек
Программа кодирования : VirtualDubModRus 1.5.10.2 (build 2542/release)
Библиотека кодирования : VirtualDubMod build 2542/release

Видео
Идентификатор : 0
Формат : MPEG-4 Visual
Профиль формата : Advanced Simple@L5
Параметр BVOP формата : 2
Параметр QPel формата : Нет
Параметр GMC формата : Без точки перехода
Параметр матрицы формата : Default (H.263)
Идентификатор кодека : XVID
Идентификатор кодека/Подсказка : XviD
Продолжительность : 1 ч. 0 м.
Битрейт : 1353 Кбит/сек
Ширина : 720 пикселей
Высота : 400 пикселей
Соотношение сторон : 16:9
Частота кадров : 23,976 кадра/сек
Цветовое пространство : YUV
Субдискретизация насыщенности : 4:2:0
Битовая глубина : 8 бит
Тип развёртки : Прогрессивная
Метод сжатия : С потерями
Бит/(Пиксели*Кадры) : 0.196
Размер потока : 584 Мбайт (83%)
Библиотека кодирования : XviD 64

Аудио #1
Идентификатор : 1
Формат : MPEG Audio
Версия формата : Version 1
Профиль формата : Layer 3
Режим : Joint stereo
Расширение режима : MS Stereo
Идентификатор кодека : 55
Идентификатор кодека/Подсказка : MP3
Продолжительность : 1 ч. 0 м.
Вид битрейта : Постоянный
Битрейт : 128 Кбит/сек
Каналы : 2 канала
Частота : 48,0 КГц
Метод сжатия : С потерями
Размер потока : 55,2 Мбайт (8%)
Выравнивание : Разделение по промежуткам
Продолжительность промежутка : 42 мс. (1,00 видеокадр)
Время предзагрузки промежутка : 500 мс.

Аудио #2
Идентификатор : 2
Формат : MPEG Audio
Версия формата : Version 1
Профиль формата : Layer 3
Режим : Joint stereo
Расширение режима : MS Stereo
Идентификатор кодека : 55
Идентификатор кодека/Подсказка : MP3
Продолжительность : 1 ч. 0 м.
Вид битрейта : Постоянный
Битрейт : 128 Кбит/сек
Каналы : 2 канала
Частота : 48,0 КГц
Метод сжатия : С потерями
Размер потока : 55,2 Мбайт (8%)
Выравнивание : Разделение по промежуткам
Продолжительность промежутка : 42 мс. (1,00 видеокадр)
Время предзагрузки промежутка : 500 мс.
Скриншоты:




Время раздачи: 24/7 - круглосуточно (по возможности)
[NNM-Club.me]_Nastoyashchiy detektiv (sezon 1) True Detective (2014) HDTVRip - Kubik v Kube.torrent
 Торрент: Платиновая раздача  Зарегистрирован
 
Скачать


Примагнититься
 Зарегистрирован:   12 Мар 2014 15:16:15
 Размер:   5,31 GB  (
 Рейтинг:   4,8 (Голосов: 263)
 Поблагодарили:   1115
 Проверка:   Оформление проверено модератором 12 Мар 2014 23:54:59

Лучшие зарубежные сериалы (без рекламы)
Как cкачать  ·  Как раздать  ·  Правильно оформить  ·  Поднять ратио!  
yourbill
Стаж: 12 лет 8 мес.
Сообщений: 275
Ratio: 51,485
Поблагодарили: 2692
100%
ukraine.gif
Понравилось, жду продолжения. Мэттью МакКонахи - красавчик. Сыграл просто отменно.
grinvictor60
Стаж: 8 лет 5 мес.
Сообщений: 172
Ratio: 13,724
100%
Откуда: От верблюда
ussr.gif
МакКонахи немного перегибает, но это мелочи. Фильм весьма неплох, Драйверу -спасибо.
TapoCheek
Стаж: 9 лет 11 мес.
Сообщений: 97
Ratio: 1,177
100%
Отпаднейший сериал, даже больше кино, чем тупая многосерийка (HBO всё таки). Спасибо за Кубиков, они на высоте !! Вроде 8 серий в 1 сезоне, надо было все дождаться и целиком посмотреть )
me_athena
Стаж: 12 лет 1 мес.
Сообщений: 44
Ratio: 17,805
90.79%
Откуда: Ростов
ussr.gif
Вот. Иногда даже важней не о чём, а кто играет + кто озвучивает.
Спасибо, релизер.
kpoxa1986
Стаж: 8 лет 8 мес.
Сообщений: 31
Ratio: 4,507
Раздал: 6,706 TB
100%
Сериал пока хорош. Актеры молодцы.
Релизеру спасибос!
LarikM
Стаж: 7 лет 3 мес.
Сообщений: 6
Ratio: 10,694
Раздал: 1,353 TB
100%
Откуда: Поморье
pirates.png
Саундтрек отличный, как и сам сериал. Релизеру - респект )
observer-x
Стаж: 8 лет 3 мес.
Сообщений: 2
Ratio: 4,696
100%
Откуда: Kazan
russia.gif
Огромное спасибо за релиз!!!
allex3
Стаж: 9 лет 8 мес.
Сообщений: 7
Ratio: 9,891
0.27%
Отличный сериал, но этот перевод кубика- это наркоман павлик портит весь сериал, ушел на амедиа
DriverV ®
Модератор Сериалов
Uploader 500+
Стаж: 9 лет 6 мес.
Сообщений: 15520
Ratio: 24K
Поблагодарили: 671381
100%
nnm-club.gif
Добавлена 8 заключительная серия сезона.
Перекачайте торрент.
Makhonya
Стаж: 9 лет 2 мес.
Сообщений: 25
Ratio: 11,839
75.76%
russia.gif
Релизёру - респект и уважуха! :респект:
Роспотребнадзору - :показывает язык:
andruhaSA
 
Стаж: 6 лет 11 мес.
Сообщений: 132
Ratio: 33,112
100%
Откуда: В.Новгород
russia.gif
Супер раздача. Посмотрел 3 серии в озвучке Амедиа, и размер в 2 раза больше. У этой раздачи КАЧЕСТВО ЛУЧШЕ ! Смотрю на Самсунге 32". Озвучка Кубиков - именно то, что надо для этого фильма. СПАСИБО !!!
Nektolucas
Стаж: 9 лет 9 мес.
Сообщений: 14
Ratio: 9,415
5.41%
Откуда: Санкт-Петербург
russia.gif
Настоящее КИНО !!! Блестяще!!!
Keorl
Стаж: 12 лет 11 мес.
Сообщений: 51
Ratio: 9,605
2.59%
russia.gif
Офигенный селиал получился!!!!
Константи​нБольшой​
Стаж: 8 лет 9 мес.
Сообщений: 52
Ratio: 0,806
100%
albania.gif
актеры на высоте, кубик в кубе - шедевральный перевод. кароче, СПАСИБО !!!
Показать сообщения:   
Начать новую тему   Ответить на тему    Торрент-трекер NNM-Club -> Зарубежные сериалы Часовой пояс: GMT + 3
Страницы:  1, 2  След.
Страница 1 из 2