Классический форум-трекер
canvas not supported
Нас вместе: 4 079 543

Легенда о старом маяке (1976) DVDRip


 
 
RSS
Начать новую тему   Ответить на тему    Торрент-трекер NNM-Club -> Мультфильмы -> Отечественные Мультфильмы для детей
Автор Сообщение
эксклюзив ®
Стаж: 8 лет 7 мес.
Сообщений: 1169
Ratio: 159,795
Поблагодарили: 75108
100%
Легенда о старом маяке (1976) DVDRip
Год выпуска: 1976
Жанр: Детский



Режиссер: Витольд Бордзиловский
Роли озвучивали: Александр Градский, Мария Виноградова, Тамара Дмитриева, Л. Катаева, Гарри Бардин

Описание фильма:
Фильм посвящен патриотической теме — освобождению родной земли от фашистских захватчиков в период Великой Отечественной войны. В основе сюжета — приключения ребят, помогающих зажечь маяк, чтобы советские корабли вошли в бухту и разгромили гитлеровцев.


Продолжительность: 00:18:42
Качество видео: DVDRip

Видеокодек: Xvid
Битрейт видео: ~1100 kb/s
Размер кадра: 640x480
Аудиокодек: MP3, 2 ch
Битрейт аудио: 112 kb/s
Видео
Идентификатор : 0
Формат : MPEG-4 Visual
Профиль формата : Advanced Simple@L5
Параметр BVOP формата : 1
Параметр QPel формата : Нет
Параметр GMC формата : Без точки перехода
Параметр матрицы формата : Default (MPEG)
Идентификатор кодека : XVID
Идентификатор кодека/Подсказка : XviD
Продолжительность : 18 м.
Битрейт : 1100 Кбит/сек
Ширина : 640 пикс.
Высота : 480 пикс.
Соотношение сторон : 4:3
Частота кадров : 25,000 кадр/сек
Цветовое пространство : YUV
Подвыборка цветности : 4:2:0
Битовая глубина : 8 бит
Тип развёртки : Прогрессивная
Метод сжатия : С потерями
Бит/(Пиксели*Кадры) : 0.143
Размер потока : 147 Мбайт (90%)
Библиотека кодирования : XviD 1.2.1 (UTC 2008-12-04)

Аудио
Идентификатор : 1
Формат : MPEG Audio
Версия формата : Version 1
Профиль формата : Layer 3
Идентификатор кодека : 55
Идентификатор кодека/Подсказка : MP3
Продолжительность : 18 м.
Вид битрейта : Постоянный
Битрейт : 112 Кбит/сек
Канал(ы) : 2 канала(ов)
Частота : 44,1 КГц
Метод сжатия : С потерями
Размер потока : 15,0 Мбайт (9%)
Выравнивание : Разделение по промежуткам
Продолжительность промежутка : 40 мс. (1,00 видеокадр)
Время предзагрузки промежутка : 500 ms
Библиотека кодирования : LAME3.98r
Настройки программы : -m s -V 4 -q 0 -lowpass 15.6 -b 112
Скриншоты:




Время раздачи: c 8:00 до 10:00
[NNM-Club.me]_Legenda o starom mayake.avi.torrent
 Торрент: Платиновая раздача  Зарегистрирован
 
Скачать


Примагнититься
 Зарегистрирован:   03 Апр 2014 11:58:40
 Размер:   163 MB  (
 Рейтинг:   4,8 (Голосов: 24)
 Поблагодарили:   62
 Проверка:   Оформление проверено модератором 05 Апр 2014 10:44:53
Как cкачать  ·  Как раздать  ·  Правильно оформить  ·  Поднять ратио!  
Показать сообщения:   
Начать новую тему   Ответить на тему    Торрент-трекер NNM-Club -> Мультфильмы -> Отечественные Мультфильмы для детей Часовой пояс: GMT + 3
Страница 1 из 1