Классический форум-трекер
canvas not supported
Нас вместе: 4 093 414

qzerss | Редактирование книги в формате FB2 [Обновляемая] (2014) PCRec


 
 
RSS
Начать новую тему   Ответить на тему    Торрент-трекер NNM-Club -> Обучающие видеоматериалы -> Компьютеры
Автор Сообщение
qzerss ®
Реставратор Клуба
Помощник модераторов Книг
 
Стаж: 9 лет 3 мес.
Сообщений: 1742
Ratio: 605,427
Поблагодарили: 56266
100%
nnm-club.gif
qzerss | Редактирование книги в формате FB2 [Обновляемая] (2014) PCRec
Жанр: Обработка книг
Продолжительность: 01:11:53
Качество видео: PCRec, MPEG-4
Видеокодек: VC-1/WMV3, AVC
Битрейт видео: 467 kbps - 2103 kbps
Размер кадра: 960х720, 1920х1040
Аудиокодек: WMA, AAC
Битрейт аудио: 96 kbps, 192 kbps, 44 kHz, 2 Ch,
Дополнительные материалы: Да

Описание:
Видео по редактированию книги в FB2, в программе FictionBook Editor 2.6.6.
Уроки создаются специально для темы - Создание и правка книг в формате fb2
Все вопросы и обсуждения направляйте в данную тему.
По мере поступления уроков тема будет обновляться.

Доп. уроки - poni-koni | Создание и редактирование книги в формате FB2 (2014) [PCRec]
1.Автор - название книги
2.Вставка обложки
3.Добавление сносок и примечаний
4.Главы-подглавы и др. элементы
5.Редактирование изображений
6.Редактирование (вычитка) примечаний
7.Вёрстка книги (объемная версия)
Добавлена программа по оптимизации картинок.
Добавлено регулярное выражение для поиска некорректных символов (для урока с объемной версией).
Код:
Общее
Полное имя                               : C:\...\Редактирование книги в формате FB2\2.Вставка обложки.wmv
Формат                                   : Windows Media
Размер файла                             : 10,1 Мбайт
Продолжительность                        : 2 м. 28 с.
Режим общего битрейта                    : Переменный
Общий поток                              : 571 Кбит/сек
Максимальный общий битрейт               : 1535 Кбит/сек
Дата кодирования                         : UTC 2014-10-05 15:10:12.229

Видео
Идентификатор                            : 2
Формат                                   : VC-1
Профиль формата                          : MP@HL
Идентификатор кодека                     : WMV3
Идентификатор кодека/Информация          : Windows Media Video 9
Идентификатор кодека/Подсказка           : WMV3
Описание кодека                          : Windows Media Video 9
Продолжительность                        : 2 м. 28 с.
Вид битрейта                             : Переменный
Битрейт                                  : 467 Кбит/сек
Ширина                                   : 1920 пикселей
Высота                                   : 1040 пикселей
Соотношение сторон                       : 1,85:1
Частота кадров                           : 10,000 кадров/сек
Цветовое пространство                    : YUV
Субдискретизация насыщенности            : 4:2:0
Битовая глубина                          : 8 бит
Тип развёртки                            : Прогрессивная
Метод сжатия                             : С потерями
Бит/(Пиксели*Кадры)                      : 0.023
Размер потока                            : 8,24 Мбайт (82%)
Язык                                     : English (US)

Аудио
Идентификатор                            : 1
Формат                                   : WMA
Версия формата                           : Version 2
Идентификатор кодека                     : 161
Идентификатор кодека/Информация          : Windows Media Audio
Описание кодека                          : Windows Media Audio 9.2 -  96 kbps, 44 kHz, stereo 1-pass CBR
Продолжительность                        : 2 м. 28 с.
Вид битрейта                             : Постоянный
Битрейт                                  : 96,0 Кбит/сек
Каналы                                   : 2 канала
Частота                                  : 44,1 КГц
Битовая глубина                          : 16 бит
Размер потока                            : 1,69 Мбайт (17%)
Язык                                     : English (US)


Код:
Общее
Полное имя                               : C:\....\7.Вёрстка книги (объемная версия).mp4
Формат                                   : MPEG-4
Профиль формата                          : Base Media / Version 2
Идентификатор кодека                     : mp42
Размер файла                             : 257 Мбайт
Продолжительность                        : 27 м.
Режим общего битрейта                    : Переменный
Общий поток                              : 1292 Кбит/сек
Название фильма                          : Вёрстка книг в формате FB2 из INDD (часть 3 из 3)
Трек/Положение                           : 1
Дата кодирования                         : UTC 2014-08-27 05:43:52
Дата пометки                             : UTC 2014-08-27 05:43:52
Обложка                                  : Yes
Примечание                               : www.dvdvideosoft.com
gshh                                     : r3---sn-1vo-apnl.googlevideo.com
gssd                                     : BD471B906HH1421352205097822
gsst                                     : 0
gstd                                     : 1668608

Видео
Идентификатор                            : 1
Формат                                   : AVC
Формат/Информация                        : Advanced Video Codec
Профиль формата                          : High@L3.1
Параметр CABAC формата                   : Да
Параметр ReFrames формата                : 1 кадр
Параметр GOP формата                     : M=1, N=60
Идентификатор кодека                     : avc1
Идентификатор кодека/Информация          : Advanced Video Coding
Продолжительность                        : 27 м.
Битрейт                                  : 1097 Кбит/сек
Максимальный битрейт                     : 10,6 Мбит/сек
Ширина                                   : 960 пикселей
Высота                                   : 720 пикселей
Соотношение сторон                       : 4:3
Режим частоты кадров                     : Постоянный
Частота кадров                           : 30,000 кадров/сек
Цветовое пространство                    : YUV
Субдискретизация насыщенности            : 4:2:0
Битовая глубина                          : 8 бит
Тип развёртки                            : Прогрессивная
Бит/(Пиксели*Кадры)                      : 0.053
Размер потока                            : 218 Мбайт (85%)
Дата пометки                             : UTC 2014-08-27 05:44:17

Аудио
Идентификатор                            : 2
Формат                                   : AAC
Формат/Информация                        : Advanced Audio Codec
Профиль формата                          : LC
Идентификатор кодека                     : 40
Продолжительность                        : 27 м.
Вид битрейта                             : Переменный
Битрейт                                  : 192 Кбит/сек
Максимальный битрейт                     : 201 Кбит/сек
Каналы                                   : 2 канала
Расположение каналов                     : Front: L R
Частота                                  : 44,1 КГц
Метод сжатия                             : С потерями
Размер потока                            : 38,2 Мбайт (15%)
Заголовок                                : IsoMedia File Produced by Google, 5-11-2011
Дата кодирования                         : UTC 2014-08-27 05:44:06
Дата пометки                             : UTC 2014-08-27 05:44:17

23.02.2015 - добавлены уроки 5,6,7
Раздача ведётся путём добавления новых файлов; при каждом добавлении создаётся новый торрент. Чтобы начать докачку новых файлов, пользователям необходимо сделать следующее:
(1) остановить скачивание,
(2) удалить старый торрент у себя из клиента (имеющиеся файлы удалять не надо),
(3) скачать новый торрент и запустить его у себя в клиенте вместо старого, при этом указать клиенту путь в старую папку, куда и должно происходить скачивание новых файлов.

Ваш клиент при этом должен произвести хеширование (проверку) старой папки (если не производит сам - помогите ему сделать это), и будет докачивать только те файлы, которых у вас ещё нет. Старые файлы при этом не удаляются, а продолжают раздаваться!

Eсли вы уже удалили старые файлы, то предотвратить повторную закачку старых файлов можно, отжав галочку в соответствующих местах при запуске нового торрента. По возможности, желательно не удалять старые файлы как можно дольше, чтобы релизёр не только продолжал раздавать старые файлы, а смог сконцентрироваться на новых.
Скриншоты:


Время раздачи: 24/7 до первых 5 скачавших
[NNM-Club.me]_Redaktirovanie knigi v formate FB2.torrent
 Торрент: Платиновая раздача  Зарегистрирован
 
Скачать


Примагнититься
 Зарегистрирован:   23 Фев 2015 23:04:48
 Размер:   725 MB  (
 Рейтинг:   4,8 (Голосов: 86)
 Поблагодарили:   322
 Проверка:   Оформление проверено модератором 24 Фев 2015 01:38:06
Как cкачать  ·  Как раздать  ·  Правильно оформить  ·  Поднять ратио!  
navolock
RG Книги
ВРИО Зам. Куратора Книг
 
Стаж: 6 лет 10 мес.
Сообщений: 11116
Ratio: 150,289
Поблагодарили: 2337309
100%
"Лучше один раз увидеть..."
Спасибо за наглядность!
Kemchuk
Реставратор Клуба
Меценат и Модератор Музыки, КПК и Мобилок, Uploader 100+
 
Стаж: 8 лет 7 мес.
Сообщений: 5806
Ratio: 201,794
Поблагодарили: 21876
100%
Откуда: RUS 50
nnm-club.gif
qzerss
Низкий поклон :поклоняется: ... и огромное спасибо!
qzerss ®
Реставратор Клуба
Помощник модераторов Книг
 
Стаж: 9 лет 3 мес.
Сообщений: 1742
Ratio: 605,427
Поблагодарили: 56266
100%
nnm-club.gif
Обновление торрента, просьба скачать торрент-файл заново.
Добавлены уроки - 5, 6, 7.
sasha0301
Стаж: 7 лет 7 мес.
Сообщений: 1
Ratio: 2,842
67.65%
Огромное спасибо!
Nika777888
Стаж: 4 года 6 мес.
Сообщений: 10
Спасибо за информацию!Пригодилась!
OFENYA
Модератор Книг
RG Книги
Меценат
 
Стаж: 10 лет 10 мес.
Сообщений: 2130
Ratio: 27,334
Поблагодарили: 237207
100%
Откуда: из вагона
ussr.gif
Вот бы ещё создать урок - как объединить несколько книг серии в одну...

_________________
| Правила оформления в Книгах | Исправил релиз - напиши в ЛС
qzerss ®
Реставратор Клуба
Помощник модераторов Книг
 
Стаж: 9 лет 3 мес.
Сообщений: 1742
Ratio: 605,427
Поблагодарили: 56266
100%
nnm-club.gif
OFENYA писал(а): Перейти к сообщению
как объединить несколько книг серии в одну

Есть вот такое (для резки/склейки) - Проект cutFB2 / mergeFB2 1.0.2 Portable [En]
Oleg0072016
Стаж: 4 года 1 мес.
Сообщений: 163
Ratio: 75,926
Поблагодарили: 6640
100%
russia.gif
Громадное спасибо за столь полезный материал!!!:-)
Alexandr Nordmann
Стаж: 6 лет 3 мес.
Сообщений: 15
Ratio: 2,424
Раздал: 798 GB
100%
Откуда: СССР
ussr.gif
Всегда делал иначе. Конвертировал книгу из .fb2 или .epub в .rtf, с помощью замечательной софтинки Calibre. После исправлял всё в удобном и привычном интерфейсе MS Word(хотя можно и без конвертации), не прибегая к html без особой необходимости. А потом, с помощью той же Calibre, доделывал все нужные операции с метаданными и прочим, конвертировал обратно в нужный формат книг и все. Мелкие правки можно в редакторе кода прям внутри calibre делать.
Leshiy64
Стаж: 10 лет
Сообщений: 1755
Ratio: 553,704
Раздал: 15,18 TB
Поблагодарили: 9403
100%
Откуда: Саратов
ussr.gif
Alexandr Nordmann
У каждого - свои недостатки! :подмигивание:

_________________
Учиться никогда не поздно! Знание - дело наживное! Опыт - венец творения! А мудрость приходит, лишь, с годами...
Показать сообщения:   
Начать новую тему   Ответить на тему    Торрент-трекер NNM-Club -> Обучающие видеоматериалы -> Компьютеры Часовой пояс: GMT + 3
Страница 1 из 1