Классический форум-трекер
canvas not supported
Нас вместе: 4 093 499

Евгений Мартынов - Лебединая верность (1997) [FLAC|Lossless]<Pop/retro>


 
 
RSS
Начать новую тему   Ответить на тему    Торрент-трекер NNM-Club -> Pop -> Советская эстрада, Ретро (Lossless)
Автор Сообщение
staronadymsky ®
Стаж: 7 лет 5 мес.
Сообщений: 360
Ratio: 59,263
Поблагодарили: 33345
100%
russia.gif
Евгений Мартынов - "Лебединая верность" ФГУП "Фирма Мелодия" (1997)
Год: 1997
Жанр: Pop/retro
Продолжительность: 01:08:53
Тип рипа: image+.cue
Кодек: FLAC
Битрейт: Lossless

Треклист:
01. Лебединая верность
02. Баллада о матери
03. Марш-воспоминание
04. Колыбельная пеплу
05. Отчий дом
06. Благодарность матерям
07. У Есенина день рождения
08. Натали
09. Добрые сказки детства
10. Летом и зимой
11. Свадебный вальс
12. Эхо первой любви
13. Прости
14. Мамины глаза
15. Земля цветов
16. Встреча друзей
17. Интервью Евгения Мартынова
18. Лебединая верность (инструм.)
Код:

Exact Audio Copy V0.99 prebeta 4 from 23. January 2008

Отчёт EAC об извлечении, выполненном 26. февраля 2010, 22:21

Евгений Мартынов / Лебединая верность

Дисковод: SONY    DVD RW DRU-700A   Adapter: 1  ID: 1

Режим чтения                 : Достоверность
Использование точного потока : Да
Отключение кэша аудио        : Да
Использование указателей C2  : Нет

Коррекция смещения при чтении                     : 12
Способность читать области Lead-in и Lead-out     : Да
Заполнение пропущенных сэмплов тишиной            : Да
Удаление блоков с тишиной в начале и конце        : Нет
При вычислениях CRC использовались нулевые сэмплы : Да
Интерфейс                                         : Встроенный Win32-интерфейс для Win NT/2000

Выходной формат          : Пользовательский кодировщик
Выбранный битрейт        : 768 kBit/s
Качество                 : Высокий
Добавление ID3-тэга      : Нет
Утилита сжатия           : C:\Program Files\Exact Audio Copy\FLAC\FLAC.EXE
Дополнительные параметры : -6 -V -T "ARTIST=%a" -T "TITLE=%t" -T "ALBUM=%g" -T "DATE=%y" -T "TRACKNUMBER=%n" -T "GENRE=%m" -T "COMMENT=%e" %s -o %d

TOC извлечённого CD

     Трек |   Старт  | Длительность | Начальный сектор | Конечный сектор
    ---------------------------------------------------------------------
       1  |  0:00.00 |    4:53.00   |           0      |      21974
       2  |  4:53.00 |    4:41.42   |       21975      |      43091
       3  |  9:34.42 |    4:18.45   |       43092      |      62486
       4  | 13:53.12 |    3:34.05   |       62487      |      78541
       5  | 17:27.17 |    4:35.13   |       78542      |      99179
       6  | 22:02.30 |    4:18.32   |       99180      |     118561
       7  | 26:20.62 |    4:03.20   |      118562      |     136806
       8  | 30:24.07 |    5:10.73   |      136807      |     160129
       9  | 35:35.05 |    4:46.62   |      160130      |     181641
      10  | 40:21.67 |    3:19.28   |      181642      |     196594
      11  | 43:41.20 |    3:23.72   |      196595      |     211891
      12  | 47:05.17 |    3:38.33   |      211892      |     228274
      13  | 50:43.50 |    4:03.32   |      228275      |     246531
      14  | 54:47.07 |    3:26.35   |      246532      |     262016
      15  | 58:13.42 |    3:42.50   |      262017      |     278716
      16  | 61:56.17 |    4:22.03   |      278717      |     298369
      17  | 66:18.20 |    0:11.17   |      298370      |     299211
      18  | 66:29.37 |    2:23.63   |      299212      |     309999

Характеристики диапазона извлечения и сообщения об ошибках

Выбранный диапазон

     Имя файла D:\D\Music\На раздачу\Евгений Мартынов\Лебединая верность\Евгений Мартынов - Лебединая верность.wav

     Пиковый уровень 97.8 %
     Качество диапазона 100.0 %
     CRC копии 018D0FC5
     Копирование... OK

Ошибок не произошло

Конец отчёта
Код:

-----------------------

DON'T MODIFY THIS FILE

-----------------------

PERFORMER: auCDtect Task Manager, ver. 1.6.0 RC1 build 1.6.0.1
Copyright (c) 2008-2010 y-soft. All rights reserved
http://y-soft.org

ANALYZER: auCDtect: CD records authenticity detector, version 0.8.2
Copyright (c) 2004 Oleg Berngardt. All rights reserved.
Copyright (c) 2004 Alexander Djourik. All rights reserved.

FILE: Евгений Мартынов - Лебединая верность.flac
  Size: 410025288 Hash: 7CF6F65C7A45A27F9BC0BBD918BA52D9 Accuracy: -m0
  Conclusion: CDDA 100%
  Signature: 3A413B0E22C036E345C83018EA94AD39B50A94D5
Время раздачи: 24/по мере возможности
[NNM-Club.me]_E. Martyinov Lebedinaya vernost'.torrent
 Торрент: Платиновая раздача  Зарегистрирован
 
Скачать


Примагнититься
 Зарегистрирован:   12 Дек 2014 06:59:37
 Размер:   391 MB  (
 Рейтинг:   4,7 (Голосов: 45)
 Поблагодарили:   126
 Проверка:   Оформление проверено модератором 12 Дек 2014 14:23:07
Как cкачать  ·  Как раздать  ·  Правильно оформить  ·  Поднять ратио!  
S@D
Стаж: 10 лет 3 мес.
Сообщений: 246
Ratio: 8,255
15%
Спасибо за хорошую раздачу.
Показать сообщения:   
Начать новую тему   Ответить на тему    Торрент-трекер NNM-Club -> Pop -> Советская эстрада, Ретро (Lossless) Часовой пояс: GMT + 3
Страница 1 из 1