Классический форум-трекер
canvas not supported
Нас вместе: 4 079 050

Исчезновение Элеанор Ригби: Он / The Disappearance of Eleanor Rigby: Them (2014) BDRip [720p]


 
 
RSS
Начать новую тему   Ответить на тему    Торрент-трекер NNM-Club -> Зарубежное кино -> Зарубежные Фильмы (HD, UHD-LQ)
Автор Сообщение
dimagor ®
Стаж: 8 лет 11 мес.
Сообщений: 1510
Ratio: 402,938
Поблагодарили: 275014
100%
russia.gif
Исчезновение Элеанор Ригби: Они / The Disappearance of Eleanor Rigby: Them (2014) BDRip
Производство: США
Жанр: Мелодрама

Режиссер: Нед Бенсон
Продюсер: Нед Бенсон, Джессика Честейн, Кассандра Кулукундис
Актеры: Джессика Честейн, Джеймс МакЭвой, Виола Дэвис, Райан Игголд, Арчи Панджаби, Билл Хейдер, Киаран Хайндс, Уильям Хёрт, Джесс Вейкслер,Кэтрин Уотерстон

Описание фильма:
Часть триады фильмов о сложных взаимоотношениях супругов в кризисный период их семейной жизни. История будет показана с точки зрения мужчины.
Действие разворачивается в Нью-Йорке. История мужа — владельца ресторана его и жены, которая решает продолжить учебу в колледже.



Дата мировой премьеры: 17 мая 2014

Продолжительность: 02:02:52
Качество видео: BDRip [720p]
Перевод: Дублированный (чистый звук)
Субтитры: Вшитые отключаемые
Язык субтитров: Английский

Видеокодек: MPEG-4 AVC/H.264
Битрейт видео: ~4853 Кбит/с
Размер кадра: 1280x536
Аудиокодек: AC3 2.0
Битрейт аудио: 192 Кбит/с
Код:

Общее
Уникальный идентификатор                 : 208175692352484898712192483619455009525 (0x9C9D2E11D3BB18EB8878E5A3E21282F5)
Полное имя                               : D:\KINO 3\CORCTED\Ischeznovenie.Eleanor.Rigbi.2014.BDRip.720p.mkv
Формат                                   : Matroska
Версия формата                           : Version 4 / Version 2
Размер файла                             : 4,33 Гбайт
Продолжительность                        : 2 ч. 2 м.
Общий поток                              : 5046 Кбит/сек
Дата кодирования                         : UTC 2015-02-13 10:19:26
Программа кодирования                    : mkvmerge v6.7.0 ('Back to the Ground') 32bit built on Jan  8 2014 15:03:17
Библиотека кодирования                   : libebml v1.3.0 + libmatroska v1.4.1

Видео
Идентификатор                            : 1
Формат                                   : AVC
Формат/Информация                        : Advanced Video Codec
Профиль формата                          : High@L4.1
Параметр CABAC формата                   : Да
Параметр ReFrames формата                : 5 кадров
Идентификатор кодека                     : V_MPEG4/ISO/AVC
Продолжительность                        : 2 ч. 2 м.
Битрейт                                  : 4853 Кбит/сек
Ширина                                   : 1280 пикселей
Высота                                   : 536 пикселей
Соотношение сторон                       : 2,40:1
Режим частоты кадров                     : Постоянный
Частота кадров                           : 23,976 кадра/сек
Цветовое пространство                    : YUV
Субдискретизация насыщенности            : 4:2:0
Битовая глубина                          : 8 бит
Тип развёртки                            : Прогрессивная
Бит/(Пиксели*Кадры)                      : 0.295
Размер потока                            : 4,08 Гбайт (94%)
Библиотека кодирования                   : x264 core 144 r2525 40bb568
Настройки программы                      : cabac=1 / ref=5 / deblock=1:0:0 / analyse=0x3:0x133 / me=umh / subme=7 / psy=1 / psy_rd=1.00:0.00 / mixed_ref=1 / me_range=16 / chroma_me=1 / trellis=1 / 8x8dct=1 / cqm=0 / deadzone=21,11 / fast_pskip=0 / chroma_qp_offset=-2 / threads=18 / lookahead_threads=3 / sliced_threads=0 / nr=0 / decimate=1 / interlaced=0 / bluray_compat=0 / constrained_intra=0 / bframes=3 / b_pyramid=2 / b_adapt=1 / b_bias=0 / direct=1 / weightb=1 / open_gop=0 / weightp=2 / keyint=250 / keyint_min=23 / scenecut=40 / intra_refresh=0 / rc_lookahead=40 / rc=2pass / mbtree=1 / bitrate=4853 / ratetol=1.0 / qcomp=0.60 / qpmin=0 / qpmax=69 / qpstep=4 / cplxblur=20.0 / qblur=0.5 / ip_ratio=1.40 / aq=1:1.00
Язык                                     : English
Default                                  : Да
Forced                                   : Нет

Аудио
Идентификатор                            : 2
Формат                                   : AC-3
Формат/Информация                        : Audio Coding 3
Расширение режима                        : CM (complete main)
Параметр Endianness формата              : Big
Идентификатор кодека                     : A_AC3
Продолжительность                        : 2 ч. 2 м.
Вид битрейта                             : Постоянный
Битрейт                                  : 192 Кбит/сек
Каналы                                   : 2 канала
Расположение каналов                     : Front: L R
Частота                                  : 48,0 КГц
Битовая глубина                          : 16 бит
Метод сжатия                             : С потерями
Размер потока                            : 169 Мбайт (4%)
Язык                                     : Russian
Default                                  : Да
Forced                                   : Да

Текст
Идентификатор                            : 3
Формат                                   : UTF-8
Идентификатор кодека                     : S_TEXT/UTF8
Идентификатор кодека/Информация          : UTF-8 Plain Text
Язык                                     : English
Default                                  : Нет
Forced                                   : Нет
Скриншоты:


Время раздачи: C 09:00 до 23:30 до 5 скачавших
[NNM-Club.me]_Ischeznovenie.Eleanor.Rigbi.2014.BDRip.720p.mkv.torrent
 Торрент: Платиновая раздача  Зарегистрирован
 
Скачать


Примагнититься
 Зарегистрирован:   13 Фев 2015 14:53:56
 Размер:   4,33 GB  (
 Рейтинг:   4,6 (Голосов: 27)
 Поблагодарили:   138
 Проверка:   Оформление проверено модератором 13 Фев 2015 22:05:55
Как cкачать  ·  Как раздать  ·  Правильно оформить  ·  Поднять ратио!  
dimagor ®
Стаж: 8 лет 11 мес.
Сообщений: 1510
Ratio: 402,938
Поблагодарили: 275014
100%
russia.gif
Прошу у всех прощения. Путаница большая с этой трилогией, ежли модераторы одобрят, то теперь
праввильное расположение фильмов:
Он: Исчезновение Элеанор Ригби: Он / The Disappearance of Eleanor Rigby: Him (2013) BDRip [720p] [VO]
Они: Исчезновение Элеанор Ригби: Он / The Disappearance of Eleanor Rigby: Them (2014) BDRip [720p]
MARET
Стаж: 8 лет 11 мес.
Сообщений: 259
Ratio: 567,363
100%
ну а как тогда понять, если Они это продолжение, а в шапке темы написато вот что: "Описание фильма:
Первая часть дилогии о сложных взаимоотношениях....." и год стоит 2014
иду по ссылке на Он, а там написато: "Описание фильма:
Первая часть трилогии, повествующей о непростых взаимоотношениях....." и год стоит 2013

то-ли трилогия, то-ли дилогия.... и главное - все части первые...)))
one_else
Стаж: 6 лет 11 мес.
Сообщений: 24
Ratio: 56,832
100%
netherlands.gif
С удовольствием прощаем Вас, Dimagor, тем более, что на этот раз Вы, похоже, и вправду выложили третью часть трилогии, хотя окончательно это будет понятно только после скачивания :ангел:
Единственное замечание: самый верхний заголовок раздачи снова неправильный, исправьте, пожалуйста,
"Исчезновение Элеанор Ригби: Он" на "Исчезновение Элеанор Ригби: Они".

И еще: всем интересно, а будет ли выложен "Исчезновение Элеанор Ригби: Она"? Этот фильм тоже вышел в 2013 году, как и первый фильм трилогии. Если будет, то когда, хотя бы приблизительно? (чтобы уж все в правильном порядке посмотреть)
KirKor666
Стаж: 6 лет 9 мес.
Сообщений: 46
Ratio: 18,967
100%
dimagor писал(а): Перейти к сообщению
Прошу у всех прощения. Путаница большая с этой трилогией, ежли модераторы одобрят, то теперь
праввильное расположение фильмов:
Он: Исчезновение Элеанор Ригби: Он / The Disappearance of Eleanor Rigby: Him (2013) BDRip [720p] [VO]
Они: Исчезновение Элеанор Ригби: Он / The Disappearance of Eleanor Rigby: Them (2014) BDRip [720p]


Это не трилогия, это дилогия. В 2013 году вышла дилогия "Исчезновение Элеанор Ригби: Он"(Him) и "Исчезновение Элеанор Ригби: Она"(Her). В широкий прокат они не пошли.
В 2014 году оба фильма объединили, вырезали "ненужное" и запустили в широкий прокат под названием "Исчезновение Элеанор Ригби: Они"(Them) - этот фильм здесь и представлен.
Показать сообщения:   
Начать новую тему   Ответить на тему    Торрент-трекер NNM-Club -> Зарубежное кино -> Зарубежные Фильмы (HD, UHD-LQ) Часовой пояс: GMT + 3
Страница 1 из 1