Классический форум-трекер
canvas not supported
Нас вместе: 4 104 829

Texhnolyze / Технолайз [2003, TV, 22] DVDRip 480p raw


 
 
RSS
Начать новую тему   Ответить на тему    Торрент-трекер NNM-Club -> Аниме с субтитрами -> Аниме (SD)
Автор Сообщение
Гость ®
Texhnolyze / Технолайз

Тип: TV-сериал
Жанр: драма, психология, меха, фантастика, киберпанк
Количество серий: 22 из 22
Продолжительность: 24.00x22
Дата премьеры / период выхода: c 17.04.2003 по 25.09.2003
Производство/студия: Madhouse Studios
Сценарист: Конака Тиаки
Режиссер: Хамадзаки Хироцугу
Видеокодек: MPEG 4 AVC (H264)
Битрейт видео: ~2000 Kbps
Размер кадра: анаморф 704x480 —› 853x480
Качество видео: DVDRip
Аудиокодек: Vorbis
Битрейт аудио: 111 Kbps VBR
Звук: Японский
Субтитры: Русские внешние + английский софтсаб в mkv
Описание:
Город Люкс, построенный неведомыми авторами за пределами общества, живет как странный автономный организм. Мрак трущоб, битый кирпич заводских развалин и дырявые крыши складов. Трубы и провода ещё помнят, куда и откуда они ведут, но уже не знают зачем. Подобная свалка для малютки Алиты («Сны оружия») была домом. ЛЮКС же больше похож на тюрьму, только с открытыми камерами и без охранников.

Люди, населяющие его, похожи на всех обычных людей – они работают, вступают в упорядоченные структуры, едят, отдыхают, правят и убивают – но они не знают и не стремятся узнать, что находится за пределами города. Город – смысл их бытия, они живут ради него и принадлежат ему, даже если жители никогда не задумываются об этом. Тусклый и мрачный, туманный и серый, сложенный из камня и металла, этот город не знает гостей, а всех «своих» подчиняет негласным правилам.

World-Art
01. Stranger
02. Forfeiture
03. Texhnophile
04. Synapse
05. Loiter
06. Repetition
07. Plot
08. Cruicible
09. Wiggle
10. Conclusion
11. Vagrant
12. Precognition
13. Vista
14. Rejection
15. Shapes
16. Strain
17. Dependence
18. Throne
19. Heavenward
20. Hades
21. Encephalopathy
22. Myth
Код:
Общее
Уникальный идентификатор                 : 244289453914213649053934099711692224751 (0xB7C86FFC02EBDED3A584B0C8AC89B8EF)
Полное имя                               : Texhnolyze_01.DVD(H264.VORBIS)[KAA][BED9F4EE].mkv
Формат                                   : Matroska
Версия формата                           : Version 1
Размер файла                             : 355 Мбайт
Продолжительность                        : 23 м.
Режим общего битрейта                    : Переменный
Общий поток                              : 2128 Кбит/сек
Дата кодирования                         : UTC 2006-05-05 07:40:20
Программа кодирования                    : mkvmerge v1.7.0 ('What Do You Take Me For') built on Apr 28 2006 17:20:19
Библиотека кодирования                   : libebml v0.7.7 + libmatroska v0.8.0
Attachment                               : Yes / Yes / Yes / Yes

Видео
Идентификатор                            : 1
Формат                                   : AVC
Формат/Информация                        : Advanced Video Codec
Профиль формата                          : High@L5.1
Параметр CABAC формата                   : Да
Параметр ReFrames формата                : 13 кадров
Идентификатор кодека                     : V_MPEG4/ISO/AVC
Продолжительность                        : 23 м.
Битрейт                                  : 1958 Кбит/сек
Номинальный битрейт                      : 2396 Кбит/сек
Ширина                                   : 704 пикселя
Высота                                   : 480 пикселей
Соотношение сторон                       : 16:9
Соотношение сторон в оригинале           : 3:2
Режим частоты кадров                     : Постоянный
Частота кадров                           : 29,970 кадров/сек
Стандарт вещания                         : NTSC
Цветовое пространство                    : YUV
Субдискретизация насыщенности            : 4:2:0
Битовая глубина                          : 8 бит
Тип развёртки                            : Прогрессивная
Бит/(Пиксели*Кадры)                      : 0.193
Размер потока                            : 326 Мбайт (92%)
Заголовок                                : Episode01: Stranger
Библиотека кодирования                   : x264 core 45 svn-487
Настройки программы                      : cabac=1 / ref=10 / deblock=1:0:0 / analyse=0x3:0x133 / me=umh / subme=7 / brdo=1 / mixed_ref=1 / me_range=16 / chroma_me=1 / trellis=2 / 8x8dct=1 / cqm=0 / chroma_qp_offset=0 / slices=2 / nr=0 / bframes=3 / b_pyramid=1 / b_adapt=1 / b_bias=0 / direct=3 / wpredb=1 / bime=1 / keyint=300 / keyint_min=25 / scenecut=40 / rc=2pass / bitrate=2396 / ratetol=1.0 / rceq='blurCplx^(1-qComp)' / qcomp=0.60 / qpmin=10 / qpmax=51 / qpstep=4 / cplxblur=20.0 / qblur=0.5 / ip_ratio=1.40 / pb_ratio=1.30
Default                                  : Да
Forced                                   : Нет

Аудио
Идентификатор                            : 2
Формат                                   : Vorbis
Параметр Floor формата                   : 1
Идентификатор кодека                     : A_VORBIS
Продолжительность                        : 23 м.
Вид битрейта                             : Переменный
Битрейт                                  : 128 Кбит/сек
Каналы                                   : 2 канала
Частота                                  : 48,0 КГц
Метод сжатия                             : С потерями
Размер потока                            : 21,3 Мбайт (6%)
Заголовок                                : 2ch VORBIS
Библиотека кодирования                   : Lancer b4b  (UTC 2006-03-03)
Язык                                     : Japanese
Default                                  : Да
Forced                                   : Нет
Программа кодирования                    : Made with BeSweet v1.5b29
Encoded_Application/Url                  : http://DSPguru.doom9.org

Текст #1
Идентификатор                            : 3
Формат                                   : ASS
Идентификатор кодека                     : S_TEXT/ASS
Идентификатор кодека/Информация          : Advanced Sub Station Alpha
Метод сжатия                             : Без потерь
Заголовок                                : ass
Язык                                     : English
Default                                  : Да
Forced                                   : Нет

Текст #2
Идентификатор                            : 4
Формат                                   : UTF-8
Идентификатор кодека                     : S_TEXT/UTF8
Идентификатор кодека/Информация          : UTF-8 Plain Text
Заголовок                                : srt
Язык                                     : English
Default                                  : Нет
Forced                                   : Нет
Код:
File: Texhnolyze_01.DVD(H264.VORBIS)[KAA][BED9F4EE].mkv
 Duration: 00:23:17 (1397.28)
 Track #1: default video (Episode01: Stranger)
  lang: und (1)
  codc: V_MPEG4/ISO/AVC -> H264/AVC (22)
  reso: 704x480 (853x480) -> Unknown (aka not common) anamorphic
  fram: hybrid (vfr)
  rate: 2013 kbps (2012.55)
  dura: 00:23:17 (1397.23)
  size: 335.22 MB (351499862)
 Track #2: default audio (2ch VORBIS)
  lang: jpn -> Japanese (2)
  codc: A_VORBIS -> Ogg Vorbis (8)
  chan: 2 -> Stereo
  samp: 48000 Hz
  rate: 110 kbps (109.61)
  dura: 00:23:17 (1397.24)
  size: 18.26 MB (19143582)
 Track #3: default subtitles (ass)
  lang: eng -> English (4)
  type: S_TEXT/ASS -> ASS (5)
  size: 4.62 KB (4730)
 Track #4: subtitles (srt)
  lang: eng -> English (4)
  type: S_TEXT/UTF8 -> SRT (3)
  size: 1.05 KB (1072)
 Sizes: (check sanity)
  disk: 354.51 MB (371729666)
  atts: 427.11 KB (437360)
  trac: 353.48 MB (370649246) [based on track size]
  bitr: 353.47 MB (370643142) [based on bitrate]
  tdif: 627.99 KB (643060) 0.17%
  bdif: 633.95 KB (649163) 0.17%


Official page

ANN || AniDB || MAL || World Art



[NNM-Club.info] [KAA]_Texhnolyze_01-22.DVD(Complete).torrent
 Торрент: Платиновая раздача  Зарегистрирован
 
Скачать


 Зарегистрирован:   02 Авг 2008 18:04:15
 Размер:   6,68 GB  (
 Рейтинг:   4,6 (Голосов: 41)
 Поблагодарили:   106
 Проверка:   Оформление проверено модератором 02 Авг 2008 19:01:46
Как cкачать  ·  Как раздать  ·  Правильно оформить  ·  Поднять ратио!  
Last
Стаж: 13 лет 6 мес.
Сообщений: 62
Ratio: 3,1
Поблагодарили: 522
100%
russia.gif
Хорошая вещь, умная...
den_den
Стаж: 11 лет 8 мес.
Сообщений: 4
Ratio: 1,01
0%
Странное аниме...
reah
Стаж: 11 лет 11 мес.
Сообщений: 5
Ratio: 1,331
100%
обложка очень напомнила Блэйм.
OnZa
Стаж: 12 лет 3 мес.
Сообщений: 1979
Ratio: 28,896
Поблагодарили: 12968
100%
Откуда: moscow
roody.gif
не самый удачный РИп у КАА имХО, или может просто рисовка специфичная такая ....

_________________
Steam/PSN id: onza_van_nekk
Показать сообщения:   
Начать новую тему   Ответить на тему    Торрент-трекер NNM-Club -> Аниме с субтитрами -> Аниме (SD) Часовой пояс: GMT + 3
Страница 1 из 1