Классический форум-трекер
canvas not supported
Нас вместе: 4 073 056
Loading...

Сотовый / Cellular (2004) BDRip [H.264/720p]


 
 
RSS
Начать новую тему   Ответить на тему    Торрент-трекер NNM-Club -> Зарубежное кино -> Зарубежные Фильмы (HD, UHD-LQ)
Автор Сообщение
ivandubskoj ®
Стаж: 5 лет 4 мес.
Сообщений: 689
Ratio: 924,345
Поблагодарили: 63196
100%
russia.gif
Сотовый / Cellular (2004) BDRip [H.264/720p]
«Когда связь имеет значение»
Производство: США, Германия, Electric Entertainment, LFG Film Produktions GmbH & Co. KG, New Line Cinema
Жанр: Боевик, триллер, драма, криминал

Режиссер: Дэвид Р. Эллис
Актеры: Ким Бейсингер, Крис Эванс, Джейсон Стэйтем, Уильям Х. Мэйси, Ноа Эммерик, Адам Тейлор Гордон, Ричард Бёрджи, Валери Крус, Джессика Бил, Эрик Этебари, Эрик Кристиан Олсен, Кэролайн Аарон, Бренда Баллард, Уилл Бейнбринк, Чейз Блох, Челси Блох, Чантиль Будуске, Робин Бреннер, Пейдж Кэннон, Никки Кристиан, Джон Черчилль, Грег Коллинз, Марко ДиМайо, Эдди Дрисколл, Тагерт Эллис

Описание: Джессику похищают и запирают на чердаке. Вся её надежда на неисправный, едва работающий телефон. Позвонив по первому попавшемуся номеру, она сообщает Райану (случайному молодому человеку) о своем похищении и о том, что её хотят убить, а также и её мужа и сына, за которыми теперь отправились похитители. Она не знает, где находится, а у единственного возможного спасителя скоро сядет батарейка телефона. Теперь Райану, знакомому с Джессикой только по ее паническому голосу, придется бороться со временем, которого остается все меньше, и постоянными проблемами со связью и лицом столкнуться с убийством и обманом.


Возраст: 16+ (зрителям, достигшим 16 лет)
Рейтинг MPAA: PG-13 (детям до 13 лет просмотр нежелателен)

Релиз от: ivandubskoj
Продолжительность: 01:33:59
Качество видео: BDRip (720p) [Исходник: Blu-ray 1080i AVC DTS 5.1]
Перевод: Дублированный (Мосфильм-Мастер), профессиональный многоголосый, профессиональный двухголосый (Tycoon-Studio), авторский одноголосый (А. Гаврилов), авторский одноголосый (Ю. Живов), украинский профессиональный многоголосый (ТК ICTV)
Язык субтитров: Русский, украинский, английский
Вид субтитров: Вшитые, отключаемые (полные, форсированные, SRT)
Навигация по главам: Есть (Сохранены оригинальные чаптеры как на Blu-Ray, с названием всех глав.)

Видео: MPEG-4 AVC, 1280x720 (16:9), 5505 Кбит/с, 23.976 кадр/с, 0.249 bit/pixel
Аудио #1: Русский, Dolby AC3, 48000 Гц, 384 Кбит/с, 6 каналов (5.1) - DUB [Мосфильм-Мастер]
Аудио #2: Русский, Dolby AC3, 48000 Гц, 192 Кбит/с, 2 канала (Стерео) - MVO
Аудио #3: Русский, Dolby AC3, 48000 Гц, 640 Кбит/с, 6 каналов (5.1) - DVO [Tycoon-Studio]
Аудио #4: Русский, Dolby AC3, 48000 Гц, 640 Кбит/с, 6 каналов (5.1) - AVO [А. Гаврилов]
Аудио #5: Русский, Dolby AC3, 48000 Гц, 448 Кбит/с, 6 каналов (5.1) - AVO [Ю. Живов]
Аудио #6: Украинский, Dolby AC3, 48000 Гц, 384 Кбит/с, 6 каналов (5.1) - MVO [ICTV]
Аудио #7: Английский, Dolby AC3, 48000 Гц, 640 Кбит/с, 6 каналов (5.1) - Оригинал
Код: выделить все
General
Unique ID : 241771200654358748822048480951027241305 (0xB5E3708345E96F6DA7389C44D4F21159)
Complete name : Cellular.2004.BDRip.720p.mkv
Format : Matroska
Format version : Version 4 / Version 2
File size : 5.80 GiB
Duration : 1h 33mn
Overall bit rate : 8 833 Kbps
Movie name : Сотовый / Cellular (2004) BDRip (720p) от ivandubskoj
Encoded date : UTC 2016-04-09 20:33:44
Writing application : mkvmerge v7.8.0 ('River Man') 64bit built on Mar 27 2015 16:31:37
Writing library : libebml v1.3.1 + libmatroska v1.4.2

Video
ID : 1
Format : AVC
Format/Info : Advanced Video Codec
Format profile : High@L4.1
Format settings, CABAC : Yes
Format settings, ReFrames : 8 frames
Codec ID : V_MPEG4/ISO/AVC
Duration : 1h 33mn
Bit rate : 5 505 Kbps
Width : 1 280 pixels
Height : 720 pixels
Display aspect ratio : 16:9
Frame rate mode : Constant
Frame rate : 23.976 fps
Color space : YUV
Chroma subsampling : 4:2:0
Bit depth : 8 bits
Scan type : Progressive
Bits/(Pixel*Frame) : 0.249
Stream size : 3.50 GiB (60%)
Title : Сотовый / Cellular (2004)
Writing library : x264 core 146 r2538 121396c
Encoding settings : cabac=1 / ref=8 / deblock=1:-3:-3 / analyse=0x3:0x113 / me=umh / subme=11 / psy=1 / psy_rd=1.10:0.10 / mixed_ref=1 / me_range=32 / chroma_me=1 / trellis=2 / 8x8dct=1 / cqm=0 / deadzone=21,11 / fast_pskip=0 / chroma_qp_offset=-3 / threads=6 / lookahead_threads=1 / sliced_threads=0 / nr=0 / decimate=0 / interlaced=0 / bluray_compat=0 / constrained_intra=0 / bframes=7 / b_pyramid=2 / b_adapt=2 / b_bias=0 / direct=3 / weightb=1 / open_gop=0 / weightp=2 / keyint=240 / keyint_min=23 / scenecut=40 / intra_refresh=0 / rc_lookahead=40 / rc=2pass / mbtree=0 / bitrate=5505 / ratetol=1.0 / qcomp=0.60 / qpmin=0 / qpmax=69 / qpstep=4 / cplxblur=20.0 / qblur=0.5 / vbv_maxrate=50000 / vbv_bufsize=62500 / nal_hrd=none / filler=0 / ip_ratio=1.40 / pb_ratio=1.30 / aq=1:1.00
Language : English
Default : Yes
Forced : No

Audio #1
ID : 2
Format : AC-3
Format/Info : Audio Coding 3
Mode extension : CM (complete main)
Format settings, Endianness : Big
Codec ID : A_AC3
Duration : 1h 33mn
Bit rate mode : Constant
Bit rate : 384 Kbps
Channel(s) : 6 channels
Channel positions : Front: L C R, Side: L R, LFE
Sampling rate : 48.0 KHz
Bit depth : 16 bits
Compression mode : Lossy
Stream size : 258 MiB (4%)
Title : DUB [Мосфильм-Мастер]
Language : Russian
Default : Yes
Forced : No

Audio #2
ID : 3
Format : AC-3
Format/Info : Audio Coding 3
Mode extension : CM (complete main)
Format settings, Endianness : Big
Codec ID : A_AC3
Duration : 1h 33mn
Bit rate mode : Constant
Bit rate : 192 Kbps
Channel(s) : 2 channels
Channel positions : Front: L R
Sampling rate : 48.0 KHz
Bit depth : 16 bits
Compression mode : Lossy
Stream size : 129 MiB (2%)
Title : MVO
Language : Russian
Default : No
Forced : No

Audio #3
ID : 4
Format : AC-3
Format/Info : Audio Coding 3
Mode extension : CM (complete main)
Format settings, Endianness : Big
Codec ID : A_AC3
Duration : 1h 33mn
Bit rate mode : Constant
Bit rate : 640 Kbps
Channel(s) : 6 channels
Channel positions : Front: L C R, Side: L R, LFE
Sampling rate : 48.0 KHz
Bit depth : 16 bits
Compression mode : Lossy
Stream size : 430 MiB (7%)
Title : DVO [Tycoon-Studio]
Language : Russian
Default : No
Forced : No

Audio #4
ID : 5
Format : AC-3
Format/Info : Audio Coding 3
Mode extension : CM (complete main)
Format settings, Endianness : Big
Codec ID : A_AC3
Duration : 1h 33mn
Bit rate mode : Constant
Bit rate : 640 Kbps
Channel(s) : 6 channels
Channel positions : Front: L C R, Side: L R, LFE
Sampling rate : 48.0 KHz
Bit depth : 16 bits
Compression mode : Lossy
Stream size : 430 MiB (7%)
Title : AVO [А. Гаврилов]
Language : Russian
Default : No
Forced : No

Audio #5
ID : 6
Format : AC-3
Format/Info : Audio Coding 3
Mode extension : CM (complete main)
Format settings, Endianness : Big
Codec ID : A_AC3
Duration : 1h 33mn
Bit rate mode : Constant
Bit rate : 448 Kbps
Channel(s) : 6 channels
Channel positions : Front: L C R, Side: L R, LFE
Sampling rate : 48.0 KHz
Bit depth : 16 bits
Compression mode : Lossy
Stream size : 301 MiB (5%)
Title : AVO [Ю. Живов]
Language : Russian
Default : No
Forced : No

Audio #6
ID : 7
Format : AC-3
Format/Info : Audio Coding 3
Mode extension : CM (complete main)
Format settings, Endianness : Big
Codec ID : A_AC3
Duration : 1h 33mn
Bit rate mode : Constant
Bit rate : 384 Kbps
Channel(s) : 6 channels
Channel positions : Front: L C R, Side: L R, LFE
Sampling rate : 48.0 KHz
Bit depth : 16 bits
Compression mode : Lossy
Stream size : 258 MiB (4%)
Title : MVO [ICTV]
Language : Ukrainian
Default : No
Forced : No

Audio #7
ID : 8
Format : AC-3
Format/Info : Audio Coding 3
Mode extension : CM (complete main)
Format settings, Endianness : Big
Codec ID : A_AC3
Duration : 1h 33mn
Bit rate mode : Constant
Bit rate : 640 Kbps
Channel(s) : 6 channels
Channel positions : Front: L C R, Side: L R, LFE
Sampling rate : 48.0 KHz
Bit depth : 16 bits
Compression mode : Lossy
Stream size : 430 MiB (7%)
Title : Original
Language : English
Default : No
Forced : No

Text #1
ID : 9
Format : UTF-8
Codec ID : S_TEXT/UTF8
Codec ID/Info : UTF-8 Plain Text
Title : Full
Language : Russian
Default : No
Forced : No

Text #2
ID : 10
Format : UTF-8
Codec ID : S_TEXT/UTF8
Codec ID/Info : UTF-8 Plain Text
Title : Full [Tycoon-Studio]
Language : Russian
Default : No
Forced : No

Text #3
ID : 11
Format : UTF-8
Codec ID : S_TEXT/UTF8
Codec ID/Info : UTF-8 Plain Text
Title : Forced
Language : Ukrainian
Default : No
Forced : No

Text #4
ID : 12
Format : UTF-8
Codec ID : S_TEXT/UTF8
Codec ID/Info : UTF-8 Plain Text
Title : Full
Language : Ukrainian
Default : No
Forced : No

Text #5
ID : 13
Format : UTF-8
Codec ID : S_TEXT/UTF8
Codec ID/Info : UTF-8 Plain Text
Title : Full
Language : English
Default : No
Forced : No

Menu
00:00:00.000 : en:Taken and Trapped
00:05:50.483 : en:Healing the Day
00:12:45.431 : en:"Who Is This?"
00:18:12.891 : en:Police Station
00:23:16.161 : en:Wyman School
00:29:46.951 : en:Low Battery
00:36:18.009 : en:"You Got 3 Seconds!"
00:44:53.924 : en:Crossed Lines
00:52:58.108 : en:Lax
00:59:13.483 : en:Connections
01:06:52.274 : en:Safe Deposit
01:10:53.449 : en:Mooney's House Call
01:15:35.564 : en:Offline
01:22:16.331 : en:Pier Hunt
01:24:48.016 : en:Last Call
01:27:48.630 : en:End Credits
За предоставленный Blu-ray - огромная благодарность HDClub и BlueBird!

За предоставленную аудио-дорожку с русским многоголосым переводом, - спасибо Glowamy и Linger babe!

За предоставленную аудио-дорожку с авторским переводом Ю. Живова, - спасибо dmsushko!

Автор рипа - ivandubskoj

Скриншоты:


Время раздачи: 24/7 (круглосуточно), - до появления 3-х постоянных сидов.

Все раздачи фильма «Сотовый» на NNM-Club
[NNMClub.to]_Cellular.2004.BDRip.720p.mkv.torrent
 Торрент: Платиновая раздача  Зарегистрирован
 
Скачать


Примагнититься
 Зарегистрирован:   14 Апр 2016 14:49:48
 Размер:   5,8 GB  (
 Рейтинг:   4,6 (Голосов: 19)
 Поблагодарили:   96
 Проверка:   Оформление проверено модератором 14 Апр 2016 15:01:26
Как cкачать  ·  Как раздать  ·  Правильно оформить  ·  Поднять ратио!  

_________________
Показать сообщения:   
Начать новую тему   Ответить на тему    Торрент-трекер NNM-Club -> Зарубежное кино -> Зарубежные Фильмы (HD, UHD-LQ) Часовой пояс: GMT + 3
Страница 1 из 1