Классический форум-трекер
canvas not supported
Нас вместе: 4 235 070

Государственный Гимн Советского Союза (1984) TVRip


 
 
RSS
Начать новую тему   Ответить на тему    Торрент-трекер NNM-Club -> Документалистика и Телепередачи -> Кинолетопись Страны Советской
Автор Сообщение
zex2 ®
Цыпа
Стаж: 16 лет 6 мес.
Сообщений: 10720
Ratio: 6.936
Поблагодарили: 12051
100%
Государственный Гимн Советского Союза (1984) TVRip
Телекомпания: ГосТелеРадио СССР
Жанр: документальный, стартовая телезаставка

Описание:
3 апреля 1984 года Президиум Верховного Совета СССР утвердил Положение о Государственном гимне Союза Советских Социалистических Республик, предусматривавшее исполнение Государственного гимна СССР в передачах Центрального телевидения в начале программы в праздничные дни, а именно: 1 января (Новогодний праздник), 23 февраля (День Советской Армии и Военно-Морского Флота), 8 марта (Международный Женский день), 22 апреля (День рождения В. И. Ленина), 1 мая (День международной солидарности трудящихся), 9 мая (Праздник Победы советского народа в Великой Отечественной войне 1941–1945 годов), 7 октября (День Конституции СССР), 7 ноября (годовщина Великой Октябрьской социалистической революции) и 30 декабря (День образования Союза Советских Социалистических Республик). В дальнейшем в этот список был добавлен и День Знаний, 1 сентября.

В соответствии с указанным Положением был подготовлен видеоклип, представленный в данной раздаче.

Продолжительность: 00:03:21
Перевод: Оригинальный

Видео: DivX 5, 716×538 (4:3), 2000 Kbps
Аудио: MPEG Layer 3, 320 kbps, 44.1 kHz, 2 ch (Stereo)
Код: выделить все
Общее
Полное имя                               : D:\Torrent\Гимн СССР 1984.avi
Формат                                   : AVI
Формат/Информация                        : Audio Video Interleave
Размер файла                             : 54,0 Мбайт
Продолжительность                        : 3 м. 21 с.
Общий поток                              : 2 249 Кбит/сек
Библиотека кодирования                   : VirtualDub-MPEG2 build 24571/release

Видео
Идентификатор                            : 0
Формат                                   : MPEG-4 Visual
Настройки формата                        : BVOP1
Параметр BVOP формата                    : 1
Параметр QPel формата                    : Нет
Параметр GMC формата                     : Без точки перехода
Параметр матрицы формата                 : Default (H.263)
Режим смешивания                         : Сжатый битовый поток
Идентификатор кодека                     : DX50
Идентификатор кодека/Подсказка           : DivX 5
Продолжительность                        : 3 м. 21 с.
Битрейт                                  : 1 919 Кбит/сек
Номинальный битрейт                      : 4 854 Кбит/сек
Ширина                                   : 716 пикселей
Высота                                   : 538 пикселей
Соотношение сторон                       : 4:3
Частота кадров                           : 24,000 кадра/сек
Цветовое пространство                    : YUV
Субдискретизация насыщенности            : 4:2:0
Битовая глубина                          : 8 бит
Тип развёртки                            : Прогрессивная
Метод сжатия                             : С потерями
Бит/(Пиксели*Кадры)                      : 0.208
Размер потока                            : 46,1 Мбайт (85%)
Библиотека кодирования                   : DivX 3330

Аудио
Идентификатор                            : 1
Формат                                   : MPEG Audio
Версия формата                           : Version 1
Профиль формата                          : Layer 3
Настройки формата                        : Joint stereo
Идентификатор кодека                     : 55
Идентификатор кодека/Подсказка           : MP3
Продолжительность                        : 3 м. 21 с.
Вид битрейта                             : Постоянный
Битрейт                                  : 320 Кбит/сек
Каналы                                   : 2 канала
Частота                                  : 44,1 КГц
Метод сжатия                             : С потерями
Размер потока                            : 7,68 Мбайт (14%)
Выравнивание                             : Разделение по промежуткам
Продолжительность промежутка             : 42  мс. (1,00 видеокадр)
Время предзагрузки промежутка            : 500  мс.
Библиотека кодирования                   : LAME3.98.4
Скриншоты:


Время раздачи: 24/7
[NNMClub.to]_Gosudarstvennyiy gimn Soyuza Sovetskih Sotsialisticheskih Respublik.torrent
 Торрент: Платиновая раздача  Зарегистрирован
 
Скачать


Примагнититься
 Зарегистрирован:   12 Июл 2023 22:40:57
 Размер:   54 MB  (
 Рейтинг:   4.2 (Голосов: 113)
 Поблагодарили:   251
 Проверка:   Оформление проверено модератором 13 Июл 2023 00:01:14
Как cкачать  ·  Как раздать  ·  Правильно оформить  ·  Поднять ратио!  
Vasi-1
Реставратор Клуба
Стаж: 15 лет 5 мес.
Сообщений: 451
Ratio: 6.347
Поблагодарили: 56
14.87%
russia.gif
ВЕЩЬ!
sailorxakep
Стаж: 11 лет 5 мес.
Сообщений: 728
Ratio: 40.691
Раздал: 9.353 TB
Поблагодарили: 509
100%
Откуда: с корабля Куда: на бал
pirates.png
eee123 писал(а):
Левота какая-то. 84-й год, а текст сталинского гимна.

Кстати, да. С 1977 по 1991 гг. другой текст был утверждён. Для оформления темы, наверное, правильнее эту картинку взять.

_________________
jambbadbalance
Только чтение
Стаж: 7 лет 10 мес.
Сообщений: 108
Ratio: 1.186
0.17%
ukraine.gif
Изначально до Ленина\Сталина была Киевская Русь это о многом говорит...
dvk73
Стаж: 15 лет 3 мес.
Сообщений: 31
Ratio: 13.255
100%
Откуда: РБ
belarus.gif
этот Гимн был до 1956 г. В 1977 вышла новая редакция которая и была до развала Союза.
Показать сообщения:   
Начать новую тему   Ответить на тему    Торрент-трекер NNM-Club -> Документалистика и Телепередачи -> Кинолетопись Страны Советской Часовой пояс: GMT + 3
Страница 1 из 1