Классический форум-трекер
canvas not supported
Нас вместе: 4 232 307

Давайте потанцуем / Shall we dansu ? (1996) DVDRip [H.264]


 
 
RSS
Начать новую тему   Ответить на тему    Торрент-трекер NNM-Club -> Зарубежное кино -> Азиатское кино (SD)
Автор Сообщение
futura3000 ®
Uploader 100+
Стаж: 16 лет 6 мес.
Сообщений: 5676
Ratio: 328.447
Поблагодарили: 22069
100%
Давайте потанцуем? / Shall we dansu? (1995) DVDRip
Русское название: Давайте потанцуем?
Оригинальное название: Shall we dansu?
Год выпуска: 1995
Жанр: Драма, Мелодрама, Комедия, Музыка
Страна: Япония
Описание фильма:
42-летний господин Сугияма жил в благоустроенном пригороде с преданной женой и восхитительной дочерью. Всё в его жизни было хорошо, но он чувствовал, что чего-то ему всё-таки не хватает… Каждый вечер, возвращаясь с работы, он видел прекрасную женщину в окне одного из зданий. И однажды он вышел на этой станции…
Режиссер: Масаюки Суо
Актеры:Кодзи Якусё, Тамиё Кусакари, Наото Такэнака, Эрико Ватанабэ, Ю Токуи, Хиромаса Тагути, Рэйко Кусамура, Хидэко Хара, Хироси Миясака, Кунихико Ида
Продолжительность: 01:58:59
Перевод: Многоголосый закадровый
Язык субтитров: Русский, Английский
Вид субтитров: Вшитые (idx)

Дата мировой премьеры: 27 января 1996
Дата выхода DVD релиза: 10 марта 2009, «West Video»
Ограничения:
12+
Видеокодек: MPEG-4 AVC/H.264
Битрейт видео: ~1419 Кбит/с
Размер кадра: 720 x 464 @ 853 x 464
Качество видео: DVDRip
Аудио:
#1: AC3, 2 ch, 192 Кбит/с (Русский)
#2: AC3, 2 ch, 192 Кбит/с (Японский)
Код: выделить все
General
Complete name                    : G:\Shall we dansu.mkv
Format                           : Matroska
File size                        : 1.53 GiB
Duration                         : 1h 58mn
Overall bit rate                 : 1 839 Kbps
Encoded date                     : UTC 2009-02-01 09:27:06
Writing application              : mkvmerge v2.4.2 ('Oh My God') built on Jan 18 2009 17:30:28
Writing library                  : libebml v0.7.7 + libmatroska v0.8.1

Video
ID                               : 1
Format                           : AVC
Format/Info                      : Advanced Video Codec
Format profile                   : High@L3.0
Format settings, CABAC           : Yes
Format settings, ReFrames        : 5 frames
Muxing mode                      : Container profile=Unknown@3.0
Codec ID                         : V_MPEG4/ISO/AVC
Duration                         : 1h 58mn
Bit rate                         : 1 419 Kbps
Nominal bit rate                 : 1 449 Kbps
Width                            : 720 pixels
Height                           : 464 pixels
Display aspect ratio             : 16:9
Original display aspect ratio    : 1.552
Frame rate                       : 23.976 fps
Resolution                       : 8 bits
Colorimetry                      : 4:2:0
Scan type                        : Progressive
Bits/(Pixel*Frame)               : 0.177
Stream size                      : 1.18 GiB (77%)
Writing library                  : x264 core 66 r1093M 1df50b9
Encoding settings                : cabac=1 / ref=5 / deblock=1:-3:-3 / analyse=0x3:0x113 / me=umh / subme=9 / psy_rd=1.0:0.0 / mixed_ref=1 / me_range=24 / chroma_me=1 / trellis=2 / 8x8dct=1 / cqm=0 / deadzone=21,11 / chroma_qp_offset=-2 / threads=3 / nr=0 / decimate=0 / mbaff=0 / bframes=6 / b_pyramid=1 / b_adapt=2 / b_bias=0 / direct=3 / wpredb=1 / keyint=250 / keyint_min=25 / scenecut=40(pre) / rc=2pass / bitrate=1449 / ratetol=1.0 / qcomp=0.60 / qpmin=10 / qpmax=51 / qpstep=4 / cplxblur=20.0 / qblur=0.5 / ip_ratio=1.40 / pb_ratio=1.30 / aq=1:1.00

Audio #1
ID                               : 2
Format                           : AC-3
Format/Info                      : Audio Coding 3
Codec ID                         : A_AC3
Duration                         : 1h 58mn
Bit rate mode                    : Constant
Bit rate                         : 192 Kbps
Channel(s)                       : 2 channels
Channel positions                : Front: L R
Sampling rate                    : 48.0 KHz
Stream size                      : 163 MiB (10%)
Language                         : Russian

Audio #2
ID                               : 3
Format                           : AC-3
Format/Info                      : Audio Coding 3
Codec ID                         : A_AC3
Duration                         : 1h 58mn
Bit rate mode                    : Constant
Bit rate                         : 192 Kbps
Channel(s)                       : 2 channels
Channel positions                : Front: L R
Sampling rate                    : 48.0 KHz
Stream size                      : 163 MiB (10%)
Language                         : Japanese

Text #1
ID                               : 4
Format                           : VobSub
Codec ID                         : S_VOBSUB
Codec ID/Info                    : The same subtitle format used on DVDs
Language                         : Russian

Text #2
ID                               : 5
Format                           : VobSub
Codec ID                         : S_VOBSUB
Codec ID/Info                    : The same subtitle format used on DVDs
Language                         : English
Скриншоты:



Время раздачи: 24/7 - круглосуточно
[NNM-Club.info] Shall we dansu.torrent
 Торрент: Платиновая раздача  Зарегистрирован
 
Скачать


Примагнититься
 Зарегистрирован:   13 Дек 2019 12:09:29
 Размер:   1.53 GB  (
 Рейтинг:   4.9 (Голосов: 25)
 Поблагодарили:   125
 Проверка:   Оформление проверено модератором 13 Дек 2019 12:18:43
Как cкачать  ·  Как раздать  ·  Правильно оформить  ·  Поднять ратио!  
Dgekki
Стаж: 15 лет 7 мес.
Сообщений: 15
Ratio: 33.309
100%
russia.gif
Почему-то нет отзывов. А ведь этот фильм заслуживает добрых слов !
Горностаев Сергей
Стаж: 13 лет
Сообщений: 4
Ratio: 18.428
29.41%
Всем привет!!! Кто-нибудь мог бы помочь с раздачей...уж очень медленно...
Заранее спасибо!!!
venik
Стаж: 14 лет
Сообщений: 8
Ratio: 59.041
100%
Откуда: РФ
russia.gif
после просмотра понял..Гир и Лопес нервно курят в углу
mnonik
Стаж: 13 лет 8 мес.
Сообщений: 26
Ratio: 1.223
100%
lithuania.gif
большое спасибо за редкий фильм в хорошем качестве !
Показать сообщения:   
Начать новую тему   Ответить на тему    Торрент-трекер NNM-Club -> Зарубежное кино -> Азиатское кино (SD) Часовой пояс: GMT + 3
Страница 1 из 1