Интеллигентный торрент-трекер
canvas not supported
Нас вместе: 4 185 567

Gakuen Babysitters / Школьные няньки [2018, TV, 6 из 12] WEB-DL 720p Raw+Rus


 
 
RSS
Начать новую тему   Ответить на тему    Торрент-трекер NNM-Club -> Аниме с озвучкой -> Онгоинги с озвучкой
Автор Сообщение
Ampho_DnB ®
RG Аниме
Uploader 100+
 
Стаж: 6 лет 1 мес.
Сообщений: 3004
Ratio: 200,755
Поблагодарили: 74761
100%
Откуда: дует?
roody.gif
Gakuen Babysitters / Школьные няньки
Жанр: комедия, повседневность
Тип: TV-сериал
Продолжительность: 6 из 12 эпизодов по 25 минут
Выпуск: c 07.01.2018
Автор: Токэино Хари
Снято по манге: Gakuen Babysitters
Режиссер: Осава Мина
Производство: Brains Base
Информационные ссылки: AniDB || World Art || MAL || ANN
Релиз подготовлен студией KANSAI
  • Тип озвучки: Многоголосая, закадровая

Описание:
У старшеклассника Рюичи и у его младшего брата Котаро произошла трагедия — они стали сиротами после гибели родителей в авиакатастрофе. Йоко Мориномия решает взять их под опеку, так как она сама потеряла сына в той самой авиакатастрофе. Новый опекун Рюичи и Котаро — председательница элитной академии. И хоть она строга и не терпит никаких поблажек, но в душе безмерно добрая. Представитель ставит одно условие нашему герою: Рюичи придётся работать нянькой в детском саде при академии, присматривая за малышами здешних учителей. Сможет ли он управиться со всем этим, учитывая, что у него самого ещё есть брат?
Качество: WEB-DLRip | Энкод: HorribleSubs
Язык озвучки: Японский и Русский
Формат: MKV
Видео: x264, 1280x720, ~1 776 kbps, 23.976 fps
Аудио: AAC, 128 kbps, 44.1 kHz, 2 ch
Аудио: AAC, 192 kbps, 48.0 kHz, 2 ch
Episode 1
Episode 2
Episode 3
Episode 4
Episode 5
Episode 6
General
Unique ID : 276735831316044199563116852869770107023 (0xD03161E66290C79E59BCB55BDCEDD88F)
Complete name : Gakuen Babysitters [KANSAI]\[KANSAI] Gakuen Babysitters - 01 [720p].mkv
Format : Matroska
Format version : Version 4 / Version 2
File size : 358 MiB
Duration : 23 min 55 s
Overall bit rate : 2 092 kb/s
Encoded date : UTC 2018-01-22 18:40:12
Writing application : mkvmerge v20.0.0 ('I Am The Sun') 64-bit
Writing library : libebml v1.3.5 + libmatroska v1.4.8

Video
ID : 1
Format : AVC
Format/Info : Advanced Video Codec
Format profile : High@L4
Format settings : CABAC / 6 Ref Frames
Format settings, CABAC : Yes
Format settings, ReFrames : 6 frames
Codec ID : V_MPEG4/ISO/AVC
Duration : 23 min 55 s
Bit rate : 1 776 kb/s
Width : 1 280 pixels
Height : 720 pixels
Display aspect ratio : 16:9
Frame rate mode : Variable
Frame rate : 23.976 (23976/1000) FPS
Color space : YUV
Chroma subsampling : 4:2:0
Bit depth : 8 bits
Scan type : Progressive
Bits/(Pixel*Frame) : 0.080
Stream size : 303 MiB (85%)
Writing library : x264 core 120 r2120 0c7dab9
Encoding settings : cabac=1 / ref=6 / deblock=1:1:1 / analyse=0x3:0x113 / me=umh / subme=8 / psy=1 / psy_rd=0.40:0.00 / mixed_ref=1 / me_range=16 / chroma_me=1 / trellis=1 / 8x8dct=1 / cqm=0 / deadzone=21,11 / fast_pskip=1 / chroma_qp_offset=-2 / threads=4 / sliced_threads=0 / nr=0 / decimate=1 / interlaced=0 / bluray_compat=0 / constrained_intra=0 / bframes=3 / b_pyramid=2 / b_adapt=2 / b_bias=0 / direct=3 / weightb=1 / open_gop=0 / weightp=2 / keyint=250 / keyint_min=23 / scenecut=40 / intra_refresh=0 / rc_lookahead=50 / rc=2pass / mbtree=1 / bitrate=1776 / ratetol=1.0 / qcomp=0.60 / qpmin=0 / qpmax=69 / qpstep=4 / cplxblur=20.0 / qblur=0.5 / vbv_maxrate=3552 / vbv_bufsize=8880 / nal_hrd=none / ip_ratio=1.40 / aq=1:0.60
Default : Yes
Forced : No

Audio #1
ID : 2
Format : AAC
Format/Info : Advanced Audio Codec
Format profile : LC
Codec ID : A_AAC-2
Duration : 23 min 55 s
Bit rate : 192 kb/s
Channel(s) : 2 channels
Channel positions : Front: L R
Sampling rate : 48.0 kHz
Frame rate : 46.875 FPS (1024 SPF)
Compression mode : Lossy
Stream size : 32.4 MiB (9%)
Language : Russian
Default : Yes
Forced : No

Audio #2
ID : 3
Format : AAC
Format/Info : Advanced Audio Codec
Format profile : LC
Codec ID : A_AAC-2
Duration : 23 min 55 s
Bit rate : 128 kb/s
Channel(s) : 2 channels
Channel positions : Front: L R
Sampling rate : 44.1 kHz
Frame rate : 43.066 FPS (1024 SPF)
Compression mode : Lossy
Stream size : 21.9 MiB (6%)
Language : Japanese
Default : No
Forced : No


Время раздачи: До первых сидов
[NNM-Club.me]_Gakuen Babysitters [KANSAI].torrent
 Торрент:   Зарегистрирован
 
Зарегистрируйтесь и скачайте торрент!
11,3 KB

Примагнититься
 Зарегистрирован:   15 Фев 2018 20:43:26
 Размер:   2,1 GB  (
 Рейтинг:    (Голосов: 8)
 Поблагодарили:   12
 Проверка:   Оформление проверено модератором 16 Фев 2018 09:41:01
Как cкачать  ·  Как раздать  ·  Правильно оформить  ·  Поднять ратио!  
Ampho_DnB ®
RG Аниме
Uploader 100+
 
Стаж: 6 лет 1 мес.
Сообщений: 3004
Ratio: 200,755
Поблагодарили: 74761
100%
Откуда: дует?
roody.gif
Торрент обновлен. Добавлены 3-5 серии.
Ampho_DnB ®
RG Аниме
Uploader 100+
 
Стаж: 6 лет 1 мес.
Сообщений: 3004
Ratio: 200,755
Поблагодарили: 74761
100%
Откуда: дует?
roody.gif
Торрент обновлен. Добавлена 6 серия.
Показать сообщения:   
Начать новую тему   Ответить на тему    Торрент-трекер NNM-Club -> Аниме с озвучкой -> Онгоинги с озвучкой Часовой пояс: GMT + 3
Страница 1 из 1