Интеллигентный торрент-трекер
canvas not supported
Нас вместе: 4 122 788

Tokyo Ghoul:Re / Токийский гуль: Перерождение [ТВ-3] [2018, TV, 7 из 12] WEB-DL 1080p Raw+Rus


Страницы:  1, 2  След. 
 
RSS
Начать новую тему   Ответить на тему    Торрент-трекер NNM-Club -> Аниме с озвучкой -> Онгоинги с озвучкой
Автор Сообщение
Ampho_DnB ®
RG Аниме
Uploader 100+
 
Стаж: 6 лет 4 мес.
Сообщений: 3125
Ratio: 200,642
Поблагодарили: 76314
100%
Откуда: дует?
roody.gif
Tokyo Ghoul:Re / Токийский гуль: Перерождение
Жанр: приключения, мистика
Тип: TV-сериал
Продолжительность: 7 из 12 эпизодов по 25 минут
Выпуск: c 03.04.2018
Автор: Исида Суи
Снято по манге: Tokyo Ghoul: Re
Режиссер: Ватанабэ Одахиро
Производство: Studio Pierrot, Pierrot Plus
Информационные ссылки: AniDB || World Art || MAL || ANN
Релиз подготовлен по заказу 2x2
  • Тип озвучки: Многоголосая, закадровая

Описание:
Два года прошло с тех пор, как CCG (служба по борьбе с гулями) накрыла кафе «Антэйку». Хотя атмосфера в Токио существенно изменилась, из-за возросшего влияния организации CCG гули продолжают создавать проблемы. Они становятся более осторожными, в частности — террористическая организация «Древо Аогири», которая позиционирует CCG как угрозу их существованию.
Особая команда, известная как «Отряд Куинкс», может дать CCG толчок, который им так необходим для истребления нежелательных жителей города. Люди, прошедшие операцию, принимают участие в операциях по сокращению численности опасных существ.
Хайсэ Сасаки — полугуль, которого тренировал известный следователь Кишо Арима. Каждый раз засыпая, его охватывают непонятные ему воспоминания, и постепенно Хайсэ вспоминает, кем он был раньше.
Качество: WEB-DLRip | Энкод: HorribleSubs
Язык озвучки: Японский и Русский
Формат: MKV
Видео: x264, 1920x1080, ~3 072 kbps, 23.976 fps
Аудио: AAC, 128 kbps, 44.1 kHz, 2 ch
Аудио: AAC, 192 kbps, 48.0 kHz, 2 ch
01. Те, кто охотятся: Начало
02. Осколки: Участник
03. Ева: Свежий
04. Аукцион: Основной
05. Рассеивающая Ночь: Нажатие
06. В конце: Поворот
07. Разум: Дни воспоминаний
General
Unique ID : 293536408473657368901587319712794640455 (0xDCD50E4E762FA5502CAB1CDFC4A98047)
Complete name : Tokyo Ghoul re\Tokyo Ghoul re - 01 [1080p].mkv
Format : Matroska
Format version : Version 4 / Version 2
File size : 586 MiB
Duration : 24 min 10 s
Overall bit rate : 3 391 kb/s
Encoded date : UTC 2018-04-24 21:07:21
Writing application : mkvmerge v22.0.0 ('At The End Of The World') 64-bit
Writing library : libebml v1.3.5 + libmatroska v1.4.8

Video
ID : 1
Format : AVC
Format/Info : Advanced Video Codec
Format profile : High@L4
Format settings : CABAC / 4 Ref Frames
Format settings, CABAC : Yes
Format settings, ReFrames : 4 frames
Codec ID : V_MPEG4/ISO/AVC
Duration : 24 min 10 s
Bit rate : 3 072 kb/s
Width : 1 920 pixels
Height : 1 080 pixels
Display aspect ratio : 16:9
Frame rate mode : Variable
Frame rate : 23.976 (23976/1000) FPS
Color space : YUV
Chroma subsampling : 4:2:0
Bit depth : 8 bits
Scan type : Progressive
Bits/(Pixel*Frame) : 0.062
Stream size : 531 MiB (91%)
Writing library : x264 core 120 r2120 0c7dab9
Encoding settings : cabac=1 / ref=4 / deblock=1:1:1 / analyse=0x3:0x113 / me=umh / subme=8 / psy=1 / psy_rd=0.40:0.00 / mixed_ref=1 / me_range=16 / chroma_me=1 / trellis=1 / 8x8dct=1 / cqm=0 / deadzone=21,11 / fast_pskip=1 / chroma_qp_offset=-2 / threads=8 / sliced_threads=0 / nr=0 / decimate=1 / interlaced=0 / bluray_compat=0 / constrained_intra=0 / bframes=3 / b_pyramid=2 / b_adapt=2 / b_bias=0 / direct=3 / weightb=1 / open_gop=0 / weightp=2 / keyint=250 / keyint_min=23 / scenecut=40 / intra_refresh=0 / rc_lookahead=50 / rc=2pass / mbtree=1 / bitrate=3072 / ratetol=1.0 / qcomp=0.60 / qpmin=0 / qpmax=69 / qpstep=4 / cplxblur=20.0 / qblur=0.5 / vbv_maxrate=6144 / vbv_bufsize=15360 / nal_hrd=none / ip_ratio=1.40 / aq=1:0.60
Default : Yes
Forced : No

Audio #1
ID : 2
Format : AAC
Format/Info : Advanced Audio Codec
Format profile : LC
Codec ID : A_AAC-2
Duration : 24 min 10 s
Bit rate : 192 kb/s
Channel(s) : 2 channels
Channel positions : Front: L R
Sampling rate : 48.0 kHz
Frame rate : 46.875 FPS (1024 SPF)
Compression mode : Lossy
Stream size : 32.7 MiB (6%)
Language : Russian
Default : Yes
Forced : No

Audio #2
ID : 3
Format : AAC
Format/Info : Advanced Audio Codec
Format profile : LC
Codec ID : A_AAC-2
Duration : 24 min 10 s
Bit rate : 128 kb/s
Channel(s) : 2 channels
Channel positions : Front: L R
Sampling rate : 44.1 kHz
Frame rate : 43.066 FPS (1024 SPF)
Compression mode : Lossy
Stream size : 22.1 MiB (4%)
Language : Japanese
Default : No
Forced : No


Время раздачи: До первых сидов
 Торрент:   Зарегистрирован
 
Зарегистрируйтесь и скачайте торрент!
20,8 KB

Примагнититься
 Зарегистрирован:   17 Май 2018 00:46:12
 Размер:   4 GB  (
 Рейтинг:   4,8 (Голосов: 22)
 Поблагодарили:   75
 Проверка:   Оформление проверено модератором 17 Май 2018 06:56:51
Как cкачать  ·  Как раздать  ·  Правильно оформить  ·  Поднять ратио!  
NikkoFox
Стаж: 2 года 3 мес.
Сообщений: 8
Ratio: 5,296
6.67%
Откуда: Краснодар
witch.png
А кто озвучивает?
hemulchik
Стаж: 7 лет 6 мес.
Сообщений: 17
Ratio: 3,027
Поблагодарили: 28
100%
russia.gif
NikkoFox писал(а): Перейти к сообщению
А кто озвучивает?

Сам это дело не смотрю, но ради такого случая ознакомился на канале 2х2. Женские голоса озвучивает Танечка - Гамлетка Цезаревна с Анидаба. Этот голос я узнаю из тысячи. Порадовался за Таню.
Lupishka
Стаж: 7 лет 2 мес.
Сообщений: 3
Ratio: 49,137
53.13%
russia.gif
Залейте с АниЛибрией)
lolegg
Стаж: 4 года 8 мес.
Сообщений: 48
Ratio: 14,621
100%
russia.gif
Lupishka писал(а): Перейти к сообщению
Залейте с АниЛибрией)

В озвучке Анилибрии и на их сайте скачать можно, а вот в озвучке 2x2, пока даже онлайн-просмотр не доступен.
netheO
Стаж: 1 год 8 мес.
Сообщений: 9
Ratio: 2,883
27.27%
russia.gif
KAEF 虞アく
Ampho_DnB ®
RG Аниме
Uploader 100+
 
Стаж: 6 лет 4 мес.
Сообщений: 3125
Ratio: 200,642
Поблагодарили: 76314
100%
Откуда: дует?
roody.gif
Торрент обновлен. Добавлена 2 серия.
hemulchik
Стаж: 7 лет 6 мес.
Сообщений: 17
Ratio: 3,027
Поблагодарили: 28
100%
russia.gif
Ampho_DnB писал(а): Перейти к сообщению
Торрент обновлен. Добавлена 2 серия.

Шеф, а чего с зимним-то сезоном?
Ampho_DnB ®
RG Аниме
Uploader 100+
 
Стаж: 6 лет 4 мес.
Сообщений: 3125
Ratio: 200,642
Поблагодарили: 76314
100%
Откуда: дует?
roody.gif
hemulchik писал(а): Перейти к сообщению
Шеф, а чего с зимним-то сезоном?

Скоро начну закрывать потихоньку.
hemulchik
Стаж: 7 лет 6 мес.
Сообщений: 17
Ratio: 3,027
Поблагодарили: 28
100%
russia.gif
Ampho_DnB писал(а): Перейти к сообщению
hemulchik писал(а): Перейти к сообщению
Шеф, а чего с зимним-то сезоном?

Скоро начну закрывать потихоньку.

Вай, спасибо, какая-то определённость радует!
Ampho_DnB ®
RG Аниме
Uploader 100+
 
Стаж: 6 лет 4 мес.
Сообщений: 3125
Ratio: 200,642
Поблагодарили: 76314
100%
Откуда: дует?
roody.gif
Торрент обновлен. Добавлена 3 серия.
Ampho_DnB ®
RG Аниме
Uploader 100+
 
Стаж: 6 лет 4 мес.
Сообщений: 3125
Ratio: 200,642
Поблагодарили: 76314
100%
Откуда: дует?
roody.gif
Завтра, с обновлением до 4 серии, во ВСЕХ сериях будет заменено видео на 1080р.
Ampho_DnB ®
RG Аниме
Uploader 100+
 
Стаж: 6 лет 4 мес.
Сообщений: 3125
Ratio: 200,642
Поблагодарили: 76314
100%
Откуда: дует?
roody.gif
Торрент полностью обновлен. Заменено видео на FullHD, добавлена 4 серия.
Ozu_sensei
Стаж: 7 лет
Сообщений: 79
Ratio: 86,189
Поблагодарили: 216
100%
russia.gif
Вопрос, планируется ли субтитры?
Ampho_DnB ®
RG Аниме
Uploader 100+
 
Стаж: 6 лет 4 мес.
Сообщений: 3125
Ratio: 200,642
Поблагодарили: 76314
100%
Откуда: дует?
roody.gif
Ozu_sensei писал(а): Перейти к сообщению
Вопрос, планируется ли субтитры?

В этой раздаче точно нет.
Показать сообщения:   
Начать новую тему   Ответить на тему    Торрент-трекер NNM-Club -> Аниме с озвучкой -> Онгоинги с озвучкой Часовой пояс: GMT + 3
Страницы:  1, 2  След.
Страница 1 из 2