Классический форум-трекер
canvas not supported
Нас вместе: 4 080 200

Небоскреб / Skyscraper (2018) UHD Blu-Ray [H.265/2160p] [4K, HDR, Dolby Vision, 10-bit]


 
 
RSS
Начать новую тему   Ответить на тему    Торрент-трекер NNM-Club -> Горячие новинки -> Новинки (HD, UHD, UHD-LQ)
Автор Сообщение
DOMKPAT ®
Uploader 500+

Online
Стаж: 4 года 1 мес.
Сообщений: 502
Ratio: 2275,932
Раздал: 670 TB
Поблагодарили: 61230
100%
Небоскреб / Skyscraper (2018) Blu-ray
Производство: США / Legendary Entertainment,Flynn Picture Company
Жанр: Боевик, Триллер

Режиссер: Роусон Маршалл Тёрбер
Актеры: Дуэйн Джонсон, Нив Кэмпбелл, Пабло Шрайбер, Ноа Тейлор, Кевин Ранкин, Роланд Мёллер, Байрон Манн, Мэтт О`Лири, Адриан Холмс

Описание:
Самый высокий и технологичный небоскрёб в мире становится центром огненной катастрофы. Только бывший агент ФБР, а теперь эксперт по безопасности Уилл Сойер может спасти вертикальный город под небесами. Когда нельзя доверять никому, а жизнь семьи в опасности, каждая секунда на счету.


Возраст: 16+ (зрителям, достигшим 16 лет)
Рейтинг MPAA: PG-13 (детям до 13 лет просмотр нежелателен)
Дата мировой премьеры: 11 июля 2018
Дата российской премьеры: 12 июля 2018, «UPI»

Продолжительность: 01:42:24
Качество видео: UHD Blu-ray
Перевод: Дублированный
Субтитры: Русские (Forced, Full), Украинские (Forced), Английские (Full, SDH)

Видео: HEVC/H.265, 3840x2160, ~69,1 Mbps
Аудио 01: TrueHD, 8 ch, 2836 Kbps - Английский
Аудио 02: AC3, 6 ch, 384 Kbps - Русский (DUB, iTunes)
Аудио 03: AC3, 2 ch, 192 Kbps - Украинский
Аудио 04: AC3, 2 ch, 192 Kbps - Английский (Commentary)
Скриншоты:


Все одноименные релизы в Клубе
Время раздачи: 24/7 (до появления первых 3-5 скачавших)
[NNM-Club.me]_Skyscraper.2018.UHD.BLURAY.2160p.torrent
 Торрент: Золотая раздача  Зарегистрирован
 
Зарегистрируйтесь и скачайте торрент!
150 KB

Примагнититься
 Зарегистрирован:   03 Окт 2018 07:31:43
 Размер:   81,7 GB  (
 Рейтинг:   4,9 (Голосов: 20)
 Поблагодарили:   80
 Проверка:   Оформление проверено модератором 03 Окт 2018 08:33:04
Как cкачать  ·  Как раздать  ·  Правильно оформить  ·  Поднять ратио!  
LancRock
Стаж: 2 года 8 мес.
Сообщений: 4
Ratio: 8,627
0%
Русской дороги нет, только три на английском языке и одна на украинском.
lexa 454
Стаж: 8 лет 3 мес.
Сообщений: 15
Ratio: 2,032
100%
Откуда: Санкт-Петербург
russia.gif
Невозможно смотреть. Все идет рывками. Телевизор Samsung ks 9000. Подскажите что можно сделать.

_________________
Спасибо, Алексей.
Volandd15
Стаж: 3 года 9 мес.
Сообщений: 2
Ratio: 11,572
0.61%
lexa 454 писал(а): Перейти к сообщению
Невозможно смотреть. Все идет рывками. Телевизор Samsung ks 9000. Подскажите что можно сделать.

не вывозит встроенный плеер видимо, на ks7000 тоже самое, нужна приставка для таких больших фильмов.
Ты как смотришь через hdmi с винчестера , у меня через удаленный мультимедийный сервер.
pigill
Стаж: 9 лет
Сообщений: 103
Ratio: 32,236
Раздал: 19,28 TB
Поблагодарили: 659
100%
Volandd15 писал(а): Перейти к сообщению
lexa 454 писал(а): Перейти к сообщению
Невозможно смотреть. Все идет рывками. Телевизор Samsung ks 9000. Подскажите что можно сделать.

не вывозит встроенный плеер видимо, на ks7000 тоже самое, нужна приставка для таких больших фильмов.
Ты как смотришь через hdmi с винчестера , у меня через удаленный мультимедийный сервер.

Видео без черных полос весит меньше на 10,9ГБ Bit rate : меньше на 14,6 Mb/s при том же Bits/(Pixel*Frame)
Черные полосы тоже много берут,если их убрать возможно хватит чтобы не тормозило.
Я как то сделал эксперимент с сохранением Bits/(Pixel*Frame)
Было
Video
ID : 1
Format : HEVC
Format/Info : High Efficiency Video Coding
Commercial name : HDR10
Format profile : Main 10@L5.1@High
Codec ID : V_MPEGH/ISO/HEVC
Duration : 1 h 45 min
Bit rate : 55.1 Mb/s
Width : 3 840 pixels
Height : 2 160 pixels
Display aspect ratio : 16:9
Frame rate mode : Constant
Frame rate : 23.976 (24000/1001) FPS
Color space : YUV
Chroma subsampling : 4:2:0 (Type 2)
Bit depth : 10 bits
Bits/(Pixel*Frame) : 0.277
Stream size : 40.7 GiB (90%)
Title : BDRemux.2160p.HDR by Silverok
Default : Yes
Forced : No
Color range : Limited
Color primaries : BT.2020
Transfer characteristics : PQ
Matrix coefficients : BT.2020 non-constant
Mastering display color primaries : Display P3
Mastering display luminance : min: 0.0001 cd/m2, max: 1000 cd/m2
Стало
В Bits/(Pixel*Frame) промазал только на 4 пикселя.
Видео без черных полос весит меньше на 10,9ГБ Bit rate : меньше на 14,6 Mb/s
Video
ID : 1
Format : HEVC
Format/Info : High Efficiency Video Coding
Format profile : Main 10@L5.1@High
Codec ID : V_MPEGH/ISO/HEVC
Duration : 1 h 45 min
Bit rate : 40.5 Mb/s
Width : 3 840 pixels
Height : 1 608 pixels
Display aspect ratio : 2.40:1
Frame rate mode : Constant
Frame rate : 23.976 (24000/1001) FPS
Color space : YUV
Chroma subsampling : 4:2:0
Bit depth : 10 bits
Bits/(Pixel*Frame) : 0.273
Stream size : 29.8 GiB (98%)
Default : Yes
Forced : No
Color range : Limited
Color primaries : BT.2020
Transfer characteristics : PQ
Matrix coefficients : BT.2020 non-constant
Onizawa
Стаж: 7 лет 8 мес.
Сообщений: 39
Ratio: 3,752
44.74%
japan.gif
Что за прикол выкладывать блюрик с itunes ?
Показать сообщения:   
Начать новую тему   Ответить на тему    Торрент-трекер NNM-Club -> Горячие новинки -> Новинки (HD, UHD, UHD-LQ) Часовой пояс: GMT + 3
Страница 1 из 1