Классический форум-трекер
canvas not supported
Нас вместе: 4 232 438

Прощание с Майклом Джексоном / Michael Jackson: The Memorial (2009) HDTVRip


 
 
RSS
Начать новую тему   Ответить на тему    Торрент-трекер NNM-Club -> Театр и Музыкальное видео -> Концерты (SD)
Автор Сообщение
Vladson ®
"Веселый" Банан
Стаж: 15 лет 4 мес.
Сообщений: 12407
Ratio: 17K
Раздал: 193 GB
Поблагодарили: 3232
100%
Откуда: у бананов барабаны ?
estonia.gif
Прощание с Майклом Джексоном / Michael Jackson: The Memorial (2009) HDTVRip
Название: Michael Jackson: The Memorial/Прощание с Майклом Джексоном
Год выпуска: 2009
Жанр: Документальный
Перевод: Отсутствует

Внимание: Это рерип с этой раздачи, но для более слабых компьютеров, или просто для тех у кого напряги с трафиком.

Описание:
Live coverage of Michael Jackson's memorial service in Los Angeles. A host of Motown and major international stars pay tribute to his life, including Stevie Wonder, Mariah Carey, Lionel Richie, Smokey Robinson and Jennifer Hudson.

В Лос-Анджелесе (штат Калифорния, США) состоялась поминальная служба в честь "короля поп-музыки" Майкла Джексона, скоропостижно скончавшегося 25 июня при невыясненных до конца обстоятельствах в своем поместье в Калифорнии на 51 году жизни.
Церемония прощания, походившая не на траурную панихиду, а на чествование исполнителя, оставившего незабываемый след в истории современной музыки, прошла на арене концертного центра Staples Center, рассчитанного на 20 тысяч человек, и длилась два часа.
Она началась внесением отливающего золотом закрытого гроба с телом Майкла Джексона. Это сделали братья певца, которые надели каждый на одну руку белоснежные перчатки. Этот сценический аксессуар, наряду с черной шляпой и сверкающими инкрустацией носками, являлись фирменной "визиткой" покойной знаменитости.
У подножия сцены были выставлены многочисленные венки и корзины с цветами. За происходящим в Staples Center наблюдали зрители расположенного напротив театра Nokia. Церемонию прощания транслировали десятки мировых телеканалов. Многие американские СМИ назвали прощание "последним шоу" Джексона.
Попасть на поминальную службу в Лос-Анджелесе хотели 1,6 млн человек. "Заветные" пропуска разыгрывались в лотерею в режиме он-лайн. Победителями стали 8750 человек.

Продолжительность: 02:43:45

Видеокодек: Xvid
Битрейт видео: ~1000 kbps
Размер кадра: 624 x 352
Качество видео: HDTVRip
Аудиокодек: MP3 2.0
Битрейт аудио: 192 kbps CBR
Код:
       Формат                                   : AVI
Формат/Информация                        : Audio Video Interleave
Размер файла                             : 1,37 Гбайт
Продолжительность                        : 2 ч. 43 м.
Общий поток                              : 1196 Кбит/сек
Библиотека кодирования                   : VirtualDub build 30091/release

Видео
Идентификатор                            : 0
Формат                                   : MPEG-4 Visual
Профиль формата                          : Simple@L3
Параметр BVOP формата                    : Нет
Параметр QPel формата                    : Нет
Параметр GMC формата                     : Без точки перехода
Параметр матрицы формата                 : Default (H.263)
Идентификатор кодека                     : XVID
Идентификатор кодека/Подсказка           : XviD
Продолжительность                        : 2 ч. 43 м.
Битрейт                                  : 994 Кбит/сек
Ширина                                   : 624 пикселя
Высота                                   : 352 пикселя
Соотношение сторон                       : 16:9
Частота кадров                           : 23,976 кадра/сек
Цветовое пространство                    : YUV
Субдискретизация насыщенности            : 4:2:0
Битовая глубина                          : 8 бит
Тип развёртки                            : Прогрессивная
Метод сжатия                             : С потерями
Бит/(Пиксели*Кадры)                      : 0.189
Размер потока                            : 1,14 Гбайт (83%)
Библиотека кодирования                   : XviD 1.2.0.dev47 (UTC 2006-11-01)

Аудио
Идентификатор                            : 1
Формат                                   : MPEG Audio
Версия формата                           : Version 1
Профиль формата                          : Layer 3
Режим                                    : Joint stereo
Идентификатор кодека                     : 55
Идентификатор кодека/Подсказка           : MP3
Продолжительность                        : 2 ч. 43 м.
Вид битрейта                             : Постоянный
Битрейт                                  : 192 Кбит/сек
Каналы                                   : 2 канала
Частота                                  : 48,0 КГц
Метод сжатия                             : С потерями
Размер потока                            : 225 Мбайт (16%)
Выравнивание                             : Разделение по промежуткам
Продолжительность промежутка             : 42  мс. (1,00 видеокадр)
Время предзагрузки промежутка            : 500  мс.       
Скриншоты:

[NNM-Club.ru] [XTG-XVID] Michael Jackson - The Memorial (624x352) [HDTVRip].avi.torrent
 Торрент: Платиновая раздача  Зарегистрирован
 
Скачать


 Зарегистрирован:   11 Июл 2009 06:18:47
 Размер:   1.37 GB  (
 Рейтинг:   4.8 (Голосов: 23)
 Поблагодарили:   61
 Проверка:   Оформление проверено модератором 12 Июл 2009 09:37:28
Как cкачать  ·  Как раздать  ·  Правильно оформить  ·  Поднять ратио!  

_________________
Gena_cross
Стаж: 17 лет 6 мес.
Сообщений: 99
Ratio: 6.399
Поблагодарили: 397
100%
russia.gif
субтитры достать можно? где скачать?
ekihiroh
Стаж: 14 лет 7 мес.
Сообщений: 817
Ratio: 2.884
Поблагодарили: 976
100%
ukraine.gif
ПО поводу просьбы помощи раздаче:" Извините, но я уже удалил"
Показать сообщения:   
Начать новую тему   Ответить на тему    Торрент-трекер NNM-Club -> Театр и Музыкальное видео -> Концерты (SD) Часовой пояс: GMT + 3
Страница 1 из 1