Классический форум-трекер
canvas not supported
Нас вместе: 4 233 474

Леон / Leon (1994) BDRip [1080p] ATV [MVO]


 
 
RSS
Начать новую тему   Ответить на тему    Торрент-трекер NNM-Club -> Аудио и Видео -> Зарубежное видео HD для устройств Apple
Автор Сообщение
Весельчак У ®
Модератор Apple
Uploader 100+ Любитель спелых яблок
Стаж: 10 лет 5 мес.
Сообщений: 20037
Ratio: 114.204
Поблагодарили: 536646
100%
Откуда: От Москвы недалеко...
ussr.gif
Леон / Leon (1994) BDRip [1080p] ATV«Вы не можете остановить того, кого не видно»
Производство: Франция / Gaumont, Les Films du Dauphin
Жанр: Триллер, Драма, Криминал

Режиссер: Люк Бессон
Продюсер: Клод Бессон, Джон Гарлэнд, Бернард Гренет
Актеры: Жан Рено, Гэри Олдман, Натали Портман, Дэнни Айелло, Питер Эппел, Уилли Уан Блад, Дон Крич, Кит Э. Гласко, Рэндолф Скотт, Майкл Бадалукко

Описание:
Профессиональный убийца Леон, не знающий пощады и жалости, знакомится со своей очаровательной соседкой Матильдой, семью которой расстреливают полицейские, замешанные в торговле наркотиками. Благодаря этому знакомству он впервые испытывает чувство любви, но…


Возраст: 16+ (зрителям, достигшим 16 лет)
Рейтинг MPAA: R (лицам до 17 лет обязательно присутствие взрослого)

Релиз от: NNMClub

Продолжительность: 02:12:52
Качество видео: BDRip 1080р
Перевод: Профессиональный многоголосый, авторский одноголосый
Субтитры: Русские (Киномания), английские (Гоблин), русские (комментарии), английские
Присутствует ненормативная лексика!

Видео: H.264, 1920x816 (2.35:1), ~10,5 Mbps, 23.976 fps
Аудио#1: AAC, 2.0 ch, 197 Kbps - Русский MVO, Супербит/Киномания
Аудио#2: AAC, 2.0 ch, 196 Kbps - Русский AVO, Андрей Гаврилов
Аудио#3: AAC, 2.0 ch, 198 Kbps - Русский AVO, Дмитрий Пучков (без цензуры)
Аудио#4: AAC, 2.0 ch, 198 Kbps - English Original
Аудио#5: AC3, 6.0 ch, 640 Kbps - Русский MVO, Супербит/Киномания
Аудио#6: AC3, 6.0 ch, 640 Kbps - Русский AVO, Андрей Гаврилов
Аудио#7: AC3, 6.0 ch, 640 Kbps - Русский AVO, Дмитрий Пучков (без цензуры)
Аудио#8: AC3, 6.0 ch, 640 Kbps - English Original

Общее
Полное имя : /Volumes/HDD/Movies/NNMC/Leon.1994.BDRip.1080p.m4v
Формат : MPEG-4
Идентификатор кодека : M4V (M4V /M4A /mp42/isom)
Размер файла : 12,9 Гбайт
Продолжительность : 2 ч. 12 м.
Режим общего битрейта : Переменный
Общий поток : 13,9 Мбит/сек
Название фильма : Леон
Исполнитель : Luc Besson
Композитор : Éric Serra
Режиссёр : Luc Besson
Исполнитель : Jean Reno / Natalie Portman / Gary Oldman / Danny Aiello / Peter Appel / Michael Badalucco / Ellen Greene / Elizabeth Regen / Carl J. Matusovich / Eric Challier / Willi One Blood / Don Creech / Keith A. Glascoe / Jernard Burks / Matt De Matt / Frank Senger / Stuart Rudin / Lucius Wyatt 'Cherokee' / Maïwenn / Luc Bernard / Joseph Malerba / Adam Busch / Jessie Keosian / George Martin / Alex Dezen / Kent Broadhurst / Tommy Hollis / Peter Linari / Arsène Jiroyan / Geoffrey Bateman / Samy Naceri / Michel Montanary / Marc Andréoni / Gilles Kleber / Christophe Gautier / Junior Almeida / David Gregg / Didier Legros / Hervé Husson
Сценарист : Luc Besson
Продюсер : Patrice Ledoux
Студия-производитель : Gaumont, Les Films du Dauphin
Жанр : криминал, драма, боевик
Тип содержимого : Short Film
Дата записи : UTC 1994-09-14 12:00:00
Дата кодирования : UTC 2020-02-16 16:57:57
Дата пометки : UTC 2020-02-16 17:13:45
Обложка : Yes
LongDescription : Профессиональный убийца Леон, не знающий пощады и жалости, знакомится со своей очаровательной соседкой Матильдой, семью которой расстреливают полицейские, замешанные в торговле наркотиками. Благодаря этому знакомству он впервые испытывает чувство любви, но… как коротка жизнь профессионального убийцы.
ContentRating : mpaa|R|400|

Видео
Идентификатор : 1
Формат : AVC
Формат/Информация : Advanced Video Codec
Профиль формата : High@L4.1
Настройки формата : CABAC / 4 Ref Frames
Параметр CABAC формата : Да
Параметр ReFrames формата : 4 кадра
Идентификатор кодека : avc1
Идентификатор кодека/Информация : Advanced Video Coding
Продолжительность : 2 ч. 12 м.
Битрейт : 10,5 Мбит/сек
Ширина : 1920 пикселей
Высота : 816 пикселей
Соотношение сторон : 2,35:1
Режим частоты кадров : Переменный
Частота кадров : 23,976 кадра/сек
Минимальная частота кадров : 23,810 кадра/сек
Максимальная частота кадров : 24,390 кадра/сек
Цветовое пространство : YUV
Субдискретизация насыщенности : 4:2:0
Битовая глубина : 8 бит
Тип развёртки : Прогрессивная
Бит/(Пиксели*Кадры) : 0.280
Размер потока : 9,74 Гбайт (76%)
Библиотека кодирования : x264 core 65 r999M cc51047
Настройки программы : cabac=1 / ref=4 / deblock=1:-3:-3 / analyse=0x3:0x113 / me=umh / subme=8 / psy_rd=0.8:0.8 / mixed_ref=1 / me_range=32 / chroma_me=1 / trellis=2 / 8x8dct=1 / cqm=0 / deadzone=21,11 / chroma_qp_offset=-4 / threads=6 / nr=0 / decimate=1 / mbaff=0 / bframes=3 / b_pyramid=1 / b_adapt=2 / b_bias=0 / direct=3 / wpredb=1 / keyint=250 / keyint_min=25 / scenecut=40(pre) / rc=2pass / bitrate=10500 / ratetol=1.0 / qcomp=0.60 / qpmin=10 / qpmax=51 / qpstep=4 / cplxblur=20.0 / qblur=0.5 / vbv_maxrate=38000 / vbv_bufsize=38000 / ip_ratio=1.40 / pb_ratio=1.30 / aq=1:0.80
Язык : English
Дата кодирования : UTC 2020-02-16 16:57:57
Дата пометки : UTC 2020-02-16 17:13:43
Codec configuration box : avcC

Аудио #1
Идентификатор : 2
Формат : AAC LC
Формат/Информация : Advanced Audio Codec Low Complexity
Идентификатор кодека : mp4a-40-2
Продолжительность : 2 ч. 12 м.
Вид битрейта : Переменный
Битрейт : 197 Кбит/сек
Максимальный битрейт : 289 Кбит/сек
Каналы : 2 канала
Channel layout : L R
Частота : 48,0 КГц
Частота кадров : 46,875 кадров/сек (1024 SPF)
Метод сжатия : С потерями
Размер потока : 187 Мбайт (1%)
Язык : Russian
Default : Да
Alternate group : 1
Дата кодирования : UTC 2020-02-16 16:57:57
Дата пометки : UTC 2020-02-16 17:13:43
Fallback From : 6
tagc : public.main-program-content

Аудио #2
Идентификатор : 3
Формат : AAC LC
Формат/Информация : Advanced Audio Codec Low Complexity
Идентификатор кодека : mp4a-40-2
Продолжительность : 2 ч. 12 м.
Вид битрейта : Переменный
Битрейт : 196 Кбит/сек
Максимальный битрейт : 281 Кбит/сек
Каналы : 2 канала
Channel layout : L R
Частота : 48,0 КГц
Частота кадров : 46,875 кадров/сек (1024 SPF)
Метод сжатия : С потерями
Размер потока : 186 Мбайт (1%)
Язык : Russian
Default : Нет
Alternate group : 1
Дата кодирования : UTC 2020-02-16 16:57:57
Дата пометки : UTC 2020-02-16 17:13:43
Fallback From : 7
tagc : public.auxiliary-content

Аудио #3
Идентификатор : 4
Формат : AAC LC
Формат/Информация : Advanced Audio Codec Low Complexity
Идентификатор кодека : mp4a-40-2
Продолжительность : 2 ч. 12 м.
Вид битрейта : Переменный
Битрейт : 198 Кбит/сек
Максимальный битрейт : 297 Кбит/сек
Каналы : 2 канала
Channel layout : L R
Частота : 48,0 КГц
Частота кадров : 46,875 кадров/сек (1024 SPF)
Метод сжатия : С потерями
Размер потока : 188 Мбайт (1%)
Язык : Russian
Default : Нет
Alternate group : 1
Дата кодирования : UTC 2020-02-16 16:57:57
Дата пометки : UTC 2020-02-16 17:13:43
Fallback From : 8
tagc : public.auxiliary-content

Аудио #4
Идентификатор : 5
Формат : AAC LC
Формат/Информация : Advanced Audio Codec Low Complexity
Идентификатор кодека : mp4a-40-2
Продолжительность : 2 ч. 12 м.
Вид битрейта : Переменный
Битрейт : 198 Кбит/сек
Максимальный битрейт : 280 Кбит/сек
Каналы : 2 канала
Channel layout : L R
Частота : 48,0 КГц
Частота кадров : 46,875 кадров/сек (1024 SPF)
Метод сжатия : С потерями
Размер потока : 188 Мбайт (1%)
Язык : English
Default : Нет
Alternate group : 1
Дата кодирования : UTC 2020-02-16 16:57:57
Дата пометки : UTC 2020-02-16 17:13:43
Fallback From : 9
tagc : public.main-program-content

Аудио #5
Идентификатор : 6
Формат : AC-3
Формат/Информация : Audio Coding 3
Коммерческое название : Dolby Digital
Идентификатор кодека : ac-3
Продолжительность : 2 ч. 12 м.
Вид битрейта : Постоянный
Битрейт : 640 Кбит/сек
Каналы : 6 каналов
Channel layout : L R C LFE Ls Rs
Частота : 48,0 КГц
Частота кадров : 31,250 кадров/сек (1536 SPF)
Метод сжатия : С потерями
Размер потока : 608 Мбайт (5%)
Язык : Russian
Service kind : Complete Main
Default : Inherited From: 2
Alternate group : 1
Дата кодирования : UTC 2020-02-16 16:57:57
Дата пометки : UTC 2020-02-16 17:13:43
Fallback To : 2
tagc : public.main-program-content

Аудио #6
Идентификатор : 7
Формат : AC-3
Формат/Информация : Audio Coding 3
Коммерческое название : Dolby Digital
Идентификатор кодека : ac-3
Продолжительность : 2 ч. 12 м.
Вид битрейта : Постоянный
Битрейт : 640 Кбит/сек
Каналы : 6 каналов
Channel layout : L R C LFE Ls Rs
Частота : 48,0 КГц
Частота кадров : 31,250 кадров/сек (1536 SPF)
Метод сжатия : С потерями
Размер потока : 608 Мбайт (5%)
Язык : Russian
Service kind : Complete Main
Default : Нет
Alternate group : 1
Дата кодирования : UTC 2020-02-16 16:57:57
Дата пометки : UTC 2020-02-16 17:13:43
Fallback To : 3
tagc : public.auxiliary-content

Аудио #7
Идентификатор : 8
Формат : AC-3
Формат/Информация : Audio Coding 3
Коммерческое название : Dolby Digital
Идентификатор кодека : ac-3
Продолжительность : 2 ч. 12 м.
Вид битрейта : Постоянный
Битрейт : 640 Кбит/сек
Каналы : 6 каналов
Channel layout : L R C LFE Ls Rs
Частота : 48,0 КГц
Частота кадров : 31,250 кадров/сек (1536 SPF)
Метод сжатия : С потерями
Размер потока : 608 Мбайт (5%)
Язык : Russian
Service kind : Complete Main
Default : Нет
Alternate group : 1
Дата кодирования : UTC 2020-02-16 16:57:57
Дата пометки : UTC 2020-02-16 17:13:43
Fallback To : 4
tagc : public.auxiliary-content

Аудио #8
Идентификатор : 9
Формат : AC-3
Формат/Информация : Audio Coding 3
Коммерческое название : Dolby Digital
Идентификатор кодека : ac-3
Продолжительность : 2 ч. 12 м.
Вид битрейта : Постоянный
Битрейт : 640 Кбит/сек
Каналы : 6 каналов
Channel layout : L R C LFE Ls Rs
Частота : 48,0 КГц
Частота кадров : 31,250 кадров/сек (1536 SPF)
Метод сжатия : С потерями
Размер потока : 608 Мбайт (5%)
Язык : English
Service kind : Complete Main
Default : Нет
Alternate group : 1
Дата кодирования : UTC 2020-02-16 16:57:57
Дата пометки : UTC 2020-02-16 17:13:43
Fallback To : 5
tagc : public.main-program-content

Текст #1
Идентификатор : 10
Формат : Timed Text
Режим смешивания : sbtl
Идентификатор кодека : tx3g
Продолжительность : 2 ч. 7 м.
Вид битрейта : Переменный
Битрейт : 67 бит/сек
Размер потока : 62,8 Кбайт (0%)
Язык : Russian
Default : Да
Forced : Нет
Alternate group : 2
Дата кодирования : UTC 2020-02-16 16:57:57
Дата пометки : UTC 2020-02-16 17:13:43
tagc : public.main-program-content

Текст #2
Идентификатор : 11
Формат : Timed Text
Режим смешивания : sbtl
Идентификатор кодека : tx3g
Продолжительность : 2 ч. 7 м.
Вид битрейта : Переменный
Битрейт : 70 бит/сек
Размер потока : 65,0 Кбайт (0%)
Язык : Russian
Default : Нет
Forced : Нет
Alternate group : 2
Дата кодирования : UTC 2020-02-16 16:57:57
Дата пометки : UTC 2020-02-16 17:13:43
tagc : public.auxiliary-content

Текст #3
Идентификатор : 12
Формат : Timed Text
Режим смешивания : sbtl
Идентификатор кодека : tx3g
Продолжительность : 2 ч. 7 м.
Вид битрейта : Переменный
Битрейт : 42 бит/сек
Размер потока : 39,5 Кбайт (0%)
Язык : Russian
Default : Нет
Forced : Нет
Alternate group : 2
Дата кодирования : UTC 2020-02-16 16:57:57
Дата пометки : UTC 2020-02-16 17:13:43
tagc : public.auxiliary-content

Текст #4
Идентификатор : 13
Формат : Timed Text
Режим смешивания : sbtl
Идентификатор кодека : tx3g
Продолжительность : 2 ч. 10 м.
Вид битрейта : Переменный
Битрейт : 39 бит/сек
Размер потока : 37,9 Кбайт (0%)
Язык : English
Default : Нет
Forced : Нет
Alternate group : 2
Дата кодирования : UTC 2020-02-16 16:57:57
Дата пометки : UTC 2020-02-16 17:13:43
tagc : public.main-program-content


Name: Леон
Artist: Luc Besson
Media Kind: Movie
HD Video: 1080p
Genre: криминал, драма, боевик
Release Date: 1994-09-14T12:00:00Z
Long Description: Профессиональный убийца Леон, не знающий пощады и жалости, знакомится со своей очаровательной соседкой Матильдой, семью которой расстреливают полицейские, замешанные в торговле наркотиками. Благодаря этому знакомству он впервые испытывает чувство любви, но… как коротка жизнь профессионального убийцы.
Rating: mpaa|R|400|
Studio: Gaumont, Les Films du Dauphin
Cast: Jean Reno, Natalie Portman, Gary Oldman, Danny Aiello, Peter Appel, Michael Badalucco, Ellen Greene, Elizabeth Regen, Carl J. Matusovich, Eric Challier, Willi One Blood, Don Creech, Keith A. Glascoe, Jernard Burks, Matt De Matt, Frank Senger, Stuart Rudin, Lucius Wyatt 'Cherokee', Maïwenn, Luc Bernard, Joseph Malerba, Adam Busch, Jessie Keosian, George Martin, Alex Dezen, Kent Broadhurst, Tommy Hollis, Peter Linari, Arsène Jiroyan, Geoffrey Bateman, Samy Naceri, Michel Montanary, Marc Andréoni, Gilles Kleber, Christophe Gautier, Junior Almeida, David Gregg, Didier Legros, Hervé Husson
Director: Luc Besson
Producers: Patrice Ledoux
Screenwriters: Luc Besson
Composer: Éric Serra

Скриншоты:


Все одноименные релизы в Клубе
Время раздачи: 24/7 (до появления первых 3-5 скачавших)

Релиз подготовлен для просмотра на Apple TV, iPad, iPhone, iPod Touch.
Для просмотра данного релиза на компьютере с ОС Windows рекомендуется использовать VLC media player
[NNMClub.to]_Leon.1994.BDRip.1080p.m4v.torrent
 Торрент: Платиновая раздача  Зарегистрирован
 
Скачать


Примагнититься
 Зарегистрирован:   16 Фев 2020 21:46:38
 Размер:   12.9 GB  (
 Рейтинг:   5 (Голосов: 16)
 Поблагодарили:   73
 Проверка:   Оформление проверено модератором 16 Фев 2020 22:01:46
Как cкачать  ·  Как раздать  ·  Правильно оформить  ·  Поднять ратио!  

_________________
«Всё против нас, только ветер навстречу…».
• Apple iMac 21.5 (mid 2011) / Intel Core i5 2.7 GHz / AMD Radeon HD 6770M 512 Mb / 12GB DDR3 / Apple Magic Mouse, Apple Keyboard / macOS High Sierra 10.13.6 (17G14042)
• Apple MacBook Air 13 M1/8/256GB Silver (MGN93) / macOS Sonoma 14.4.1 (23E224)
Показать сообщения:   
Начать новую тему   Ответить на тему    Торрент-трекер NNM-Club -> Аудио и Видео -> Зарубежное видео HD для устройств Apple Часовой пояс: GMT + 3
Страница 1 из 1