Классический форум-трекер
canvas not supported
Нас вместе: 4 103 576

Достать ножи / Knives Out (2019) UHD BDRemux [H.265/2160p] [4K, HDR, 10-bit]


 
 
RSS
Начать новую тему   Ответить на тему    Торрент-трекер NNM-Club -> Горячие новинки -> Новинки (HD, UHD, UHD-LQ)
Автор Сообщение
DOMKPAT ®
Uploader 2500+
 
Стаж: 5 лет 7 мес.
Сообщений: 1310
Ratio: 19K
Раздал: 4,7412 PB
Поблагодарили: 156987
100%
Достать ножи / Knives Out (2019) UHD BDRemux [H.265/2160p] [4K, HDR, 10-bit]
Производство: США / Lionsgate, Media Rights Capital, T-Street
Жанр: Детектив, Комедия, Драма, Криминал

Режиссер: Райан Джонсон
Актеры: Дэниэл Крэйг, Ана де Армас, Крис Эванс, Джейми Ли Кёртис, Майкл Шеннон, Дон Джонсон, Тони Коллетт, Лакит Стэнфилд, Кристофер Пламмер

Описание:
На следующее утро после празднования 85-летия известного автора криминальных романов Харлана Тромби виновника торжества находят мёртвым. На лицо — явное самоубийство, но полиция по протоколу опрашивает всех присутствующих в особняке членов семьи, хотя, в этом деле больше заинтересован частный детектив Бенуа Блан. Тем же утром он получил конверт с наличными от неизвестного и заказ на расследование смерти Харлана. Не нужно быть опытным следователем, чтобы понять, что все приукрашивают свои отношения с почившим главой семейства, но Блану достаётся настоящий подарок — медсестра покойного, которая физически не выносит ложь.


Возраст: 16+ (зрителям, достигшим 16 лет)
Рейтинг MPAA: PG-13 (детям до 13 лет просмотр нежелателен)
Дата мировой премьеры: 7 сентября 2019
Дата российской премьеры: 28 ноября 2019

Релиз от: selezen

Продолжительность: 02:10:13
Качество видео: UHD BDRemux
Перевод: Дублированный, Многоголосый профессиональный, Авторский
Субтитры: Русские (Full, Forced), Английские

Видео: AVC/H.264, 3840x2160, ~55,5 Mbps
Аудио 1: AC3, 6 ch, 384 Kbps - Русский (DUB, iTunes)
Аудио 2: AC3, 6 ch, 448 Kbps - Русский (MVO, HDRezka Studio)
Аудио 3: AC3, 6 ch, 640 Kbps - Русский (AVO, Яроцкий)
Аудио 4: DTS-HD MA, 8 ch, 4826 Kbps - Русский (AVO, Яроцкий)
Аудио 5: TrueHD, 8 ch, 2585 Kbps - Английский
Аудио 6: AC3, 6 ch, 640 Kbps - Английский
Скриншоты:


Все одноименные релизы в Клубе

Время раздачи: 24/7 (мультитрекер)
[NNMClub.to]_Knives.Out.2019.BDREMUX.2160p.HDR.torrent
 Торрент: Платиновая раздача  Зарегистрирован
 
Скачать


Примагнититься
 Зарегистрирован:   19 Фев 2020 23:49:01
 Размер:   59,2 GB  (
 Рейтинг:   4,8 (Голосов: 52)
 Поблагодарили:   225
 Проверка:   Оформление проверено модератором 20 Фев 2020 01:45:58
Поблагодарить и поддержать меня материально можно любым удобным способом тут:
Нажми
Как cкачать  ·  Как раздать  ·  Правильно оформить  ·  Поднять ратио!  
Bondis007
Стаж: 8 лет 2 мес.
Сообщений: 48
Ratio: 11,611
62.21%
Спасибо. но заголоаок поправь.......H.264/1080p

///Исправлено, спасибо.
Tolmach
Uploader 100+
Стаж: 13 лет
Сообщений: 1422
Ratio: 2007,771
Раздал: 469,6 TB
Поблагодарили: 23722
100%
прекрасный фильм, посмотрел с большим удовольствием.

смутило, конечно, наличие "комедия" в перечне жанров - ну да ладно :)

как бы то ни было, любителям классических британских детективов - очень даже советую посмотреть.
Kadri-love
Uploader 100+
Стаж: 7 лет
Сообщений: 167
Ratio: 414
100%
DOMKPAT Спасибо.

Побольше бы таких качественных детективов снимали. Все интересно, нескучно, с интригой (как и должно быть в детективах). Жаль только, что я, случайно, заметил на данном трекере кто злодей (но, кажется, сообщение удалили, того, кто проспойлерил это; другим повезет больше чем мне с интригой). Фильм рекомендую.

5 из 5
aplodis
Стаж: 6 лет 11 мес.
Сообщений: 12
Ratio: 11,606
1.33%
Ожидал большего. Какая-то тягомотина. Фанатам Агаты Кристи, наверное, понравится.
pulze
Стаж: 4 года 4 мес.
Сообщений: 28
Ratio: 6,113
51.89%
чудесный детектив. качество супер спасибо!
ihsoft
Стаж: 6 лет 2 мес.
Сообщений: 6
Ratio: 45,747
100%
UPDATE: Разобрался, проблема на моей стороне. Каким-то образом uTorrent умудрился скачать только треть файла и продолжал рапортовать, что все хорошо. Не ожидал от него такого. Дело было не в кодировке.

Мой плеер отказался играть фильм дальше 40 минут: Plex Player on NVIDIA-Pro.

Виндовый стандартный плеер (win 10) отказывается перематывать видео - играет только с начала. Ждать 40 минут чтобы понять заткнется она там так же как Plex желания не возникло.

Попытка перестроить индекс через ffmpeg ожидаемо упала на 40-ой минуте. С кодировкой в этой раздаче что-то явно не то. Наверное есть плееры, которые могут это преодолеть, но вот Plex не может. К слову, то что выдает ffpmeg до 40-ой минуты отлично показывается всеми плеерами.

Код: выделить все

    Stream #0:0(eng): Video: hevc (Main 10), yuv420p10le(tv, bt2020nc/bt2020/smpte2084), 3840x2160 [SAR 1:1 DAR 16:9], q=2-31, 23.98 fps, 23.98 tbr, 1k tbn, 1ktbc (default)
    Stream #0:1(rus): Audio: dts (DTS-HD MA) ([1] [0][0] / 0x2001), 48000 Hz, 7.1 (24 bit)
    Metadata:
      title           : AVO [Kyberpunk]
    Stream #0:2(rus): Subtitle: subrip (default) (forced)
    Metadata:
      title           : Forced
Stream mapping:
  Stream #0:0 -> #0:0 (copy)
  Stream #0:4 -> #0:1 (copy)
  Stream #0:7 -> #0:2 (copy)
Press [q] to stop, [?] for help
[matroska,webm @ 0000000002652800] Read errorme=00:40:11.04 bitrate=61277.0kbits/s speed=32.6x
frame=58118 fps=781 q=-1.0 Lsize=18200732kB time=00:40:24.04 bitrate=61509.0kbits/s speed=32.6x
video:16802594kB audio:1395933kB subtitle:1kB other streams:0kB global headers:1kB muxing overhead: 0.012116%


Целостность файла перепроверил. Ошибок скачки точно нет.

Раздачи этого автора качал и раньше, проблем никогда не было. Скорее всего, это что-то сугубо специфическое для этой раздачи.
vitorio73
Стаж: 6 лет 11 мес.
Сообщений: 21
Ratio: 1,057
0.55%
spain.gif
качать 60 гб ,чтобы смотреть с черными полосами??
Показать сообщения:   
Начать новую тему   Ответить на тему    Торрент-трекер NNM-Club -> Горячие новинки -> Новинки (HD, UHD, UHD-LQ) Часовой пояс: GMT + 3
Страница 1 из 1