Классический форум-трекер
canvas not supported
Нас вместе: 4 172 727

Брат 2 (2000) WEB-DL [720p] ATV


 
 
RSS
Начать новую тему   Ответить на тему    Торрент-трекер NNM-Club -> Аудио и Видео -> Отечественное видео HD для устройств Apple
Автор Сообщение
Весельчак У ®
Модератор Apple
Uploader 100+
Стаж: 8 лет
Сообщений: 13053
Ratio: 130.865
Поблагодарили: 375167
100%
Откуда: От Москвы недалеко...
ussr.gif
Брат 2 (2000) WEB-DL [720p] ATV«Данила возвращается!»
Производство: Россия, США / Кинокомпания CTB
Жанр: Боевик, криминал

Режиссер: Алексей Балабанов
Продюсер: Валери Гобо, Сергей Сельянов
Актеры: Сергей Бодров мл., Виктор Сухоруков, Сергей Маковецкий, Ирина Салтыкова, Кирилл Пирогов, Александр Дьяченко, Дарья Юргенс, Александр Наумов, Александр Карамнов, Гэри Хьюстон

Описание:
Участвуя в программе на телевидении, Данила Багров встречает своих друзей по Чечне. Одного из них внезапно убивают. Данила знает, что у того были неприятности из-за брата-хоккеиста в Америке. Данила должен разобраться. Он вылетает в Америку и для компании берёт с собой брата. Теперь его фотография ходит по рукам русской и американской мафии. Новоявленные «Аль Капоне» понимают, что нарвались на профессионала…


Возраст: 16+ (зрителям, достигшим 16 лет)

Релиз от: NNMClub

Продолжительность: 02:02:40
Качество видео: WEB-DL 720p
Перевод: Не требуется, русский
Субтитры: Отсутствуют

Видео: AVC/H.264, 960x720@1280x720, ~4029 kbps, 25.000 fps
Аудио: AAC, 2.0 ch, 171 Kbps - Русский

Общее
Полное имя : /Volumes/HDD/Movies/NNMC/Брат.2.2000.WEB-DL.720p.m4v
Формат : MPEG-4
Идентификатор кодека : M4V (M4V /M4A /mp42/isom)
Размер файла : 3,60 Гбайт
Продолжительность : 2 ч. 2 м.
Режим общего битрейта : Переменный
Общий поток : 4206 Кбит/сек
Название фильма : Брат 2
Исполнитель : Алексей Балабанов
Режиссёр : Алексей Балабанов
Исполнитель : Сергей Бодров мл. / Виктор Сухоруков / Сергей Маковецкий / Ирина Салтыкова / Гэри Хьюстон
Сценарист : Алексей Балабанов
Продюсер : Сергей Сельянов / Валери Гобо
Студия-производитель : Кинокомпания CTB
Жанр : Русские
Тип содержимого : Short Film
Дата записи : UTC 2000-09-11 07:00:00
Дата кодирования : UTC 2020-02-24 07:25:17
Дата пометки : UTC 2020-02-24 07:29:09
Авторское право : © 2000 СТВ
Обложка : Yes
LongDescription : Участвуя в программе на телевидении, Данила Багров встречает своих друзей по Чечне. Одного из них внезапно убивают. Данила знает, что у того были неприятности из-за брата-хоккеиста в Америке. Данила должен разобраться. Он вылетает в Америку и для компании берёт с собой брата. Теперь его фотография ходит по рукам русской и американской мафии. Новоявленные «Аль Капоне» понимают, что нарвались на профессионала…
HDVideo : Yes
AppleStoreCountry : Russia
AppleStoreCatalogID : 1047042643
ContentRating : ru-movie|16+|375|

Видео #1
Идентификатор : 1
Формат : AVC
Формат/Информация : Advanced Video Codec
Профиль формата : Main@L3.1
Настройки формата : 2 Ref Frames
Параметр CABAC формата : Нет
Параметр ReFrames формата : 2 кадра
Параметр GOP формата : M=2, N=90
Идентификатор кодека : avc1
Идентификатор кодека/Информация : Advanced Video Coding
Продолжительность : 2 ч. 2 м.
Битрейт : 4029 Кбит/сек
Ширина : 960 пикселей
Высота : 720 пикселей
Соотношение сторон : 16:9
Режим частоты кадров : Постоянный
Частота кадров : 25,000 кадров/сек
Цветовое пространство : YUV
Субдискретизация насыщенности : 4:2:0
Битовая глубина : 8 бит
Тип развёртки : Прогрессивная
Бит/(Пиксели*Кадры) : 0.233
Размер потока : 3,45 Гбайт (96%)
Язык : Russian
Дата кодирования : UTC 2020-02-24 07:25:17
Дата пометки : UTC 2020-02-24 07:29:01
Цветовой диапазон : Limited
Основные цвета : BT.709
Характеристики трансфера : BT.709
Коэффициенты матрицы : BT.709
Menus : 3,4
Codec configuration box : avcC

Видео #2
Идентификатор : 4
Формат : JPEG
Идентификатор кодека : jpeg
Продолжительность : 2 ч. 2 м.
Вид битрейта : Переменный
Битрейт : 1022 бит/сек
Ширина : 640 пикселей
Высота : 360 пикселей
Соотношение сторон : 16:9
Режим частоты кадров : Переменный
Частота кадров : 0,003 кадр/сек
Минимальная частота кадров : 0,002 кадр/сек
Максимальная частота кадров : 0,004 кадр/сек
Цветовое пространство : YUV
Субдискретизация насыщенности : 4:2:0
Битовая глубина : 8 бит
Метод сжатия : С потерями
Бит/(Пиксели*Кадры) : 1.479
Размер потока : 831 Кбайт (0%)
Язык : Russian
Default : Нет
Дата кодирования : UTC 2020-02-24 07:29:08
Дата пометки : UTC 2020-02-24 07:29:08
Menu For : 1
ColorSpace_ICC : RGB

Аудио
Идентификатор : 2
Формат : AAC LC
Формат/Информация : Advanced Audio Codec Low Complexity
Идентификатор кодека : mp4a-40-2
Продолжительность : 2 ч. 2 м.
Вид битрейта : Переменный
Битрейт : 171 Кбит/сек
Максимальный битрейт : 254 Кбит/сек
Каналы : 2 канала
Channel layout : L R
Частота : 48,0 КГц
Частота кадров : 46,875 кадров/сек (1024 SPF)
Метод сжатия : С потерями
Размер потока : 150 Мбайт (4%)
Язык : Russian
Default : Да
Alternate group : 1
Дата кодирования : UTC 2020-02-24 07:25:17
Дата пометки : UTC 2020-02-24 07:29:01
tagc : public.main-program-content

Меню
Идентификатор : 3
Идентификатор кодека : text
Продолжительность : 2 ч. 2 м.
Язык : English
Дата кодирования : UTC 2020-02-24 07:29:01
Дата пометки : UTC 2020-02-24 07:29:01
Menu For : 1
00:00:00.000 : 1
00:07:38.000 : 2
00:13:07.000 : 3
00:18:14.000 : 4
00:24:38.000 : 5
00:31:26.999 : 6
00:38:10.000 : 7
00:44:05.000 : 8
00:51:29.000 : 9
00:57:08.000 : 10
01:02:41.000 : 11
01:08:01.000 : 12
01:14:26.000 : 13
01:22:00.000 : 14
01:28:24.000 : 15
01:33:59.000 : 16
01:39:27.000 : 17
01:45:27.000 : 18
01:52:06.000 : 19
01:56:34.000 : 20


Name: Брат 2
Artist: Алексей Балабанов
Media Kind: Movie
HD Video: 720p
Genre: Русские
Release Date: 2000-09-11T07:00:00Z
Long Description: Участвуя в программе на телевидении, Данила Багров встречает своих друзей по Чечне. Одного из них внезапно убивают. Данила знает, что у того были неприятности из-за брата-хоккеиста в Америке. Данила должен разобраться. Он вылетает в Америку и для компании берёт с собой брата. Теперь его фотография ходит по рукам русской и американской мафии. Новоявленные «Аль Капоне» понимают, что нарвались на профессионала…
Rating: ru-movie|16+|375|
Studio: Кинокомпания CTB
Cast: Сергей Бодров мл., Виктор Сухоруков, Сергей Маковецкий, Ирина Салтыкова, Гэри Хьюстон
Director: Алексей Балабанов
Producers: Сергей Сельянов, Валери Гобо
Screenwriters: Алексей Балабанов
Copyright: © 2000 СТВ
content ID: 1047042643
iTunes Country: 143469

Скриншоты:


Все одноименные релизы в Клубе
Время раздачи: 24/7 (до появления первых 3-5 скачавших)

Релиз подготовлен для просмотра на Apple TV, iPad, iPhone, iPod Touch.
Для просмотра данного релиза на компьютере с ОС Windows рекомендуется использовать VLC media player
[NNMClub.to]_Brat.2.2000.WEB-DL.720p.m4v.torrent
 Торрент: Платиновая раздача  Зарегистрирован
 
Скачать


Примагнититься
 Зарегистрирован:   24 Фев 2020 11:27:19
 Размер:   3.6 GB  (
 Рейтинг:   4.6 (Голосов: 24)
 Поблагодарили:   96
 Проверка:   Оформление проверено модератором 24 Фев 2020 12:42:03
Как cкачать  ·  Как раздать  ·  Правильно оформить  ·  Поднять ратио!  

_________________
«Всё против нас, только ветер навстречу…».
Apple iMac 21.5 (mid 2011) / Intel Core i5 2.7 GHz / AMD Radeon HD 6770M 512 Mb / 12GB DDR3 / Apple Trackpad, Apple Keyboard / macOS High Sierra 10.13.6 (17G14042)
anjey_gerko
Стаж: 2 года 6 мес.
Сообщений: 7
Ratio: 0.905
12.39%
Комикс с элементами великорусского шовинизма
slavaa
Стаж: 12 лет 7 мес.
Сообщений: 178
Ratio: 54.066
100%
russia.gif
Если поколение ЕГЭ это называет комиксом, значит им не дано понять!
Я русский!
ispzero
Стаж: 12 лет 6 мес.
Сообщений: 19
Ratio: 11.865
100%
Чего ещё ждать от поколения ЕГЭ? Пусть смотрят "Человека-паука". Убогие в моральном плане. Хотя ведь смотрят-же. Как-то реагируют. Не всё ещё потеряно. Фильм очень хороший.
skalop
 
Стаж: 12 лет 2 мес.
Сообщений: 129
Ratio: 3.575
100%
russia.gif
Слыш ты... Без опознавательных знаков. Засунь к себе в ... своего халка и там три раза проверни. Что первый фильм что второй замечательны.
p.s. Создается впечатление что ты просто провокатор, коих на сайте развелось уйма.
Aplsin
Стаж: 4 года 4 мес.
Сообщений: 104
Ratio: 192.47
100%
Меня тогда тоже в провокаторы запишите. Фильмы - и первый, и второй - просто кинохулиганство (как и всё у Балабанова), оторванное от жизни и сдобренное крайне вредными посылами. Да и играет Бодров вообще никак, одно название.
mioane
 
Стаж: 12 лет 1 мес.
Сообщений: 138
Ratio: 2.733
Раздал: 5.23 TB
100%
georgia.gif
Хороший фильм – легко смотрится. Живи будем, ещё можно! А что это такое ЕГЭ?
slavaa
Стаж: 12 лет 7 мес.
Сообщений: 178
Ratio: 54.066
100%
russia.gif
А что это такое ЕГЭ?mioane

Еди́ный госуда́рственный экза́мен (ЕГЭ) — централизованно проводимый в Российской Федерации экзамен в средних учебных заведениях — школах, лицеях и гимназиях, форма проведения ГИА по образовательным программам среднего общего образования
mioane
 
Стаж: 12 лет 1 мес.
Сообщений: 138
Ratio: 2.733
Раздал: 5.23 TB
100%
georgia.gif
Спасибо. Пересмотрю первый. Жалко Бодрова.
Stilldan
Стаж: 12 лет 7 мес.
Сообщений: 725
Ratio: 13.193
Поблагодарили: 18
56.6%
witch.png
slavaa писал(а): Перейти к сообщению
Если поколение ЕГЭ это называет комиксом, значит им не дано понять!
Я русский!

Они в большенстве своем вообще мало чего понимают.
Показать сообщения:   
Начать новую тему   Ответить на тему    Торрент-трекер NNM-Club -> Аудио и Видео -> Отечественное видео HD для устройств Apple Часовой пояс: GMT + 3
Страница 1 из 1