Классический форум-трекер
canvas not supported
Нас вместе: 4 211 000

Семейка Аддамс / The Addams Family (2019) BDRip [1080p] ATV


 
 
RSS
Начать новую тему   Ответить на тему    Торрент-трекер NNM-Club -> Аудио и Видео -> Зарубежное видео HD для устройств Apple
Автор Сообщение
Весельчак У ®
Модератор Apple
Uploader 100+
Стаж: 9 лет
Сообщений: 15992
Ratio: 121.989
Поблагодарили: 449515
100%
Откуда: От Москвы недалеко...
ussr.gif
Семейка Аддамс / The Addams Family (2019) BDRip [1080p] ATV«Думаете, ваша семейка странная?»
Производство: Канада, США / Metro-Goldwyn-Mayer (MGM), Cinesite Animation
Жанр: Мультфильм, ужасы, фэнтези, комедия, семейный

Режиссер: Грег Тирнан, Конрад Вернон
Продюсер: Гэйл Берман, Joel MacDonald, Alison O'Brien
Актеры: Оскар Айзек, Шарлиз Терон, Хлоя Грейс Морец, Финн Вулфард, Ник Кролл, Снуп Догг, Бетт Мидлер, Эллисон Джэнни, Мартин Шорт, Кэтрин О`Хара

Описание:
Папа любит долгие прогулки в ненастную погоду. Мама считает, что черный цвет самый яркий. У детей кладбище - любимая площадка для игр. Бабушка выпивает пару капель яда перед сном. Вы все еще думаете, что ваши родственники странные? Знакомьтесь - семейка Аддамс.


Возраст: 12+ (зрителям, достигшим 12 лет)
Рейтинг MPAA: PG (рекомендуется присутствие родителей)
Дата мировой премьеры: 10 октября 2019
Дата российской премьеры: 31 октября 2019, «UPI»

Релиз от: NNMClub

Продолжительность: 01:27:01
Качество видео: BDRip 1080р
Перевод: Дублированный (License)
Субтитры: Русские (Forced, full), украинские (Forced), английские (full)

Видео: H.264, 1920x1036 (1,85:1), ~11,3 Mbps, 23.976 fps
Аудио#1: AAC, 2 ch, 230 Kbps - Русский DUB, License
Аудио#2: AAC, 2 ch, 229 Kbps - Український DUB
Аудио#3: AAC, 2 ch, 230 Kbps - English Original
Аудио#4: AC3, 6 ch, 448 Kbps - Русский DUB, License
Аудио#5: AC3, 6 ch, 640 Kbps - English Original

Общее
Полное имя : /Volumes/HDD/Movies/NNMC/The.Addams.Family.2019.BDRip.1080p.NNMClub.m4v
Формат : MPEG-4
Идентификатор кодека : M4V (M4V /M4A /mp42/isom)
Размер файла : 7,96 Гбайт
Продолжительность : 1 ч. 27 м.
Режим общего битрейта : Переменный
Общий поток : 13,1 Мбит/сек
Название фильма : Семейка Аддамс (2019)
Исполнитель : Conrad Vernon & Greg Tiernan
Композитор : Mychael Danna, Jeff Danna
Режиссёр : Conrad Vernon & Greg Tiernan
Исполнитель : Oscar Isaac / Charlize Theron / Chloe Grace Moretz / Finn Wolfhard / Nick Kroll / Snoop Dogg / Bette Midler / Allison Janney / Martin Short / Catherine O'Hare
Сценарист : Matt Lieberman
Продюсер : Gail Berman / Conrad Vernon / Alex Schwartz / Alison O'Brien
Исполнительный продюсер : Aaron L. Gilbert, Jason Cloth, Andrew Mittman, Kevin Miserocchi, Joe Earley
Студия-производитель : MGM
Жанр : Для всей семьи
Тип содержимого : Short Film
Дата записи : UTC 2019-10-11 07:00:00
Дата кодирования : UTC 2020-04-13 04:00:02
Дата пометки : UTC 2020-04-13 04:11:09
Авторское право : © 2019 Metro-Goldwyn-Mayer Pictures Inc.
Обложка : Yes
LongDescription : Основанная на знаменитых карикатурах Чарльза Аддамса из журнала «Нью-Йоркер», эта анимационная комедия рассказывает о противостоянии семейки Аддамс хитрой ведущей реалити-ТВ во время подготовки к грандиозному празднеству в фирменном стиле Аддамсов, на которое соберутся их многочисленные родственники. Роли озвучивали: Оскар Айзек, Шарлиз Терон, Хлоя Грейс Морец, Финн Вольфхард, Ник Кролл, Бетт Мидлер и Эллисон Дженни.
AppleStoreCountry : Russia
AppleStoreCatalogID : 1479901173
ContentRating : ru-movie|6+|150|

Видео #1
Идентификатор : 1
Формат : AVC
Формат/Информация : Advanced Video Codec
Профиль формата : High@L4.1
Настройки формата : CABAC / 4 Ref Frames
Параметр CABAC формата : Да
Параметр ReFrames формата : 4 кадра
Идентификатор кодека : avc1
Идентификатор кодека/Информация : Advanced Video Coding
Продолжительность : 1 ч. 27 м.
Битрейт : 11,3 Мбит/сек
Ширина : 1 920 пикселей
Высота : 1 036 пикселей
Соотношение сторон : 1,85:1
Режим частоты кадров : Переменный
Частота кадров : 23,976 (24000/1001) кадра/сек
Минимальная частота кадров : 23,810 кадра/сек
Максимальная частота кадров : 24,390 кадра/сек
Цветовое пространство : YUV
Субдискретизация насыщенности : 4:2:0
Битовая глубина : 8 бит
Тип развёртки : Прогрессивная
Бит/(Пиксели*Кадры) : 0.237
Размер потока : 6,87 Гбайт (86%)
Библиотека кодирования : x264 core 159 r2991+50 ce3db24 t_mod_New [(8 & 10)-bit@all X86_64]
Настройки программы : cabac=1 / ref=4 / deblock=1:-3:-3 / analyse=0x3:0x133 / me=umh / subme=10 / psy=1 / fade_compensate=0.00 / psy_rd=0.80:0.00 / mixed_ref=1 / me_range=32 / chroma_me=1 / trellis=2 / 8x8dct=1 / cqm=0 / deadzone=21,11 / fast_pskip=0 / chroma_qp_offset=-2 / threads=18 / lookahead_threads=4 / sliced_threads=0 / nr=0 / decimate=1 / interlaced=0 / bluray_compat=0 / constrained_intra=0 / fgo=0 / bframes=16 / b_pyramid=2 / b_adapt=2 / b_bias=0 / direct=3 / weightb=1 / open_gop=0 / weightp=2 / keyint=250 / keyint_min=23 / scenecut=40 / intra_refresh=0 / rc=crf / mbtree=0 / crf=16.5000 / qcomp=0.60 / qpmin=0:0:0 / qpmax=69:69:69 / qpstep=4 / ip_ratio=1.20 / pb_ratio=1.10 / aq=3:1.00 / aq-sensitivity=10.00 / aq-factor=1.00:1.00:1.00 / aq2=0 / aq3=0
Язык : English
Дата кодирования : UTC 2020-04-13 04:00:02
Дата пометки : UTC 2020-04-13 04:10:41
Menus : 13,14
Codec configuration box : avcC

Видео #2
Идентификатор : 14
Формат : JPEG
Идентификатор кодека : jpeg
Продолжительность : 1 ч. 27 м.
Вид битрейта : Переменный
Битрейт : 1 603 бит/сек
Ширина : 640 пикселей
Высота : 345 пикселей
Соотношение сторон : 1,85:1
Режим частоты кадров : Переменный
Частота кадров : 0,004 кадр/сек
Минимальная частота кадров : 0,002 кадр/сек
Максимальная частота кадров : 0,020 кадр/сек
Цветовое пространство : YUV
Субдискретизация насыщенности : 4:2:0
Битовая глубина : 8 бит
Метод сжатия : С потерями
Бит/(Пиксели*Кадры) : 1.815
Размер потока : 978 Кбайт (0%)
Язык : English
Default : Нет
Дата кодирования : UTC 2020-04-13 04:11:07
Дата пометки : UTC 2020-04-13 04:11:08
Menu For : 1
ColorSpace_ICC : RGB

Аудио #1
Идентификатор : 2
Формат : AAC LC
Формат/Информация : Advanced Audio Codec Low Complexity
Идентификатор кодека : mp4a-40-2
Продолжительность : 1 ч. 27 м.
Вид битрейта : Переменный
Битрейт : 230 Кбит/сек
Максимальный битрейт : 389 Кбит/сек
Каналы : 2 канала
Channel layout : L R
Частота : 48,0 КГц
Частота кадров : 46,875 кадров/сек (1024 SPF)
Метод сжатия : С потерями
Размер потока : 143 Мбайт (2%)
Язык : Russian
Default : Да
Alternate group : 1
Дата кодирования : UTC 2020-04-13 04:00:02
Дата пометки : UTC 2020-04-13 04:10:41
Fallback From : 5
tagc : public.main-program-content

Аудио #2
Идентификатор : 3
Формат : AAC LC
Формат/Информация : Advanced Audio Codec Low Complexity
Идентификатор кодека : mp4a-40-2
Продолжительность : 1 ч. 27 м.
Вид битрейта : Переменный
Битрейт : 229 Кбит/сек
Максимальный битрейт : 370 Кбит/сек
Каналы : 2 канала
Channel layout : L R
Частота : 48,0 КГц
Частота кадров : 46,875 кадров/сек (1024 SPF)
Метод сжатия : С потерями
Размер потока : 143 Мбайт (2%)
Язык : Ukrainian
Default : Нет
Alternate group : 1
Дата кодирования : UTC 2020-04-13 04:00:02
Дата пометки : UTC 2020-04-13 04:10:41
tagc : public.main-program-content

Аудио #3
Идентификатор : 4
Формат : AAC LC
Формат/Информация : Advanced Audio Codec Low Complexity
Идентификатор кодека : mp4a-40-2
Продолжительность : 1 ч. 27 м.
Вид битрейта : Переменный
Битрейт : 230 Кбит/сек
Максимальный битрейт : 446 Кбит/сек
Каналы : 2 канала
Channel layout : L R
Частота : 48,0 КГц
Частота кадров : 46,875 кадров/сек (1024 SPF)
Метод сжатия : С потерями
Размер потока : 143 Мбайт (2%)
Язык : English
Default : Нет
Alternate group : 1
Дата кодирования : UTC 2020-04-13 04:00:02
Дата пометки : UTC 2020-04-13 04:10:41
Fallback From : 6
tagc : public.main-program-content

Аудио #4
Идентификатор : 5
Формат : AC-3
Формат/Информация : Audio Coding 3
Коммерческое название : Dolby Digital
Идентификатор кодека : ac-3
Продолжительность : 1 ч. 27 м.
Вид битрейта : Постоянный
Битрейт : 448 Кбит/сек
Каналы : 6 каналов
Channel layout : L R C LFE Ls Rs
Частота : 48,0 КГц
Частота кадров : 31,250 кадров/сек (1536 SPF)
Метод сжатия : С потерями
Размер потока : 279 Мбайт (3%)
Язык : Russian
Service kind : Complete Main
Default : Inherited From: 2
Alternate group : 1
Дата кодирования : UTC 2020-04-13 04:00:02
Дата пометки : UTC 2020-04-13 04:10:41
Fallback To : 2
tagc : public.main-program-content

Аудио #5
Идентификатор : 6
Формат : AC-3
Формат/Информация : Audio Coding 3
Коммерческое название : Dolby Digital
Идентификатор кодека : ac-3
Продолжительность : 1 ч. 27 м.
Вид битрейта : Постоянный
Битрейт : 640 Кбит/сек
Каналы : 6 каналов
Channel layout : L R C LFE Ls Rs
Частота : 48,0 КГц
Частота кадров : 31,250 кадров/сек (1536 SPF)
Метод сжатия : С потерями
Размер потока : 398 Мбайт (5%)
Язык : English
Service kind : Complete Main
Default : Нет
Alternate group : 1
Дата кодирования : UTC 2020-04-13 04:00:02
Дата пометки : UTC 2020-04-13 04:10:41
Fallback To : 4
tagc : public.main-program-content

Текст #1
Идентификатор : 7
Формат : Timed Text
Режим смешивания : sbtl
Идентификатор кодека : tx3g
Продолжительность : 1 ч. 27 м.
Вид битрейта : Переменный
Битрейт : 10 бит/сек
Размер потока : 6,68 Кбайт (0%)
Язык : Russian
Default : Да
Forced : Нет
Alternate group : 2
Дата кодирования : UTC 2020-04-13 04:00:02
Дата пометки : UTC 2020-04-13 04:10:42
tagc : public.subtitles.forced-only

Текст #2
Идентификатор : 8
Формат : Timed Text
Режим смешивания : sbtl
Идентификатор кодека : tx3g
Продолжительность : 1 ч. 21 м.
Вид битрейта : Переменный
Битрейт : 2 бит/сек
Размер потока : 1,30 Кбайт (0%)
Язык : Russian
Default : Нет
Forced : Нет
Alternate group : 2
Дата кодирования : UTC 2020-04-13 04:00:02
Дата пометки : UTC 2020-04-13 04:10:41
tagc : public.subtitles.forced-only

Текст #3
Идентификатор : 9
Формат : Timed Text
Режим смешивания : sbtl
Идентификатор кодека : tx3g
Продолжительность : 1 ч. 21 м.
Вид битрейта : Переменный
Битрейт : 6 бит/сек
Размер потока : 3,83 Кбайт (0%)
Язык : Russian
Default : Нет
Forced : Нет
Alternate group : 2
Дата кодирования : UTC 2020-04-13 04:00:02
Дата пометки : UTC 2020-04-13 04:10:41
tagc : public.main-program-content

Текст #4
Идентификатор : 10
Формат : Timed Text
Режим смешивания : sbtl
Идентификатор кодека : tx3g
Продолжительность : 1 ч. 21 м.
Вид битрейта : Переменный
Битрейт : 111 бит/сек
Размер потока : 65,9 Кбайт (0%)
Язык : Russian
Default : Нет
Forced : Нет
Alternate group : 2
Дата кодирования : UTC 2020-04-13 04:00:02
Дата пометки : UTC 2020-04-13 04:10:42
tagc : public.auxiliary-content

Текст #5
Идентификатор : 11
Формат : Timed Text
Режим смешивания : sbtl
Идентификатор кодека : tx3g
Продолжительность : 1 ч. 21 м.
Вид битрейта : Переменный
Битрейт : 1 бит/сек
Размер потока : 871 байт (0%)
Язык : Ukrainian
Default : Нет
Forced : Нет
Alternate group : 2
Дата кодирования : UTC 2020-04-13 04:00:02
Дата пометки : UTC 2020-04-13 04:10:41
tagc : public.subtitles.forced-only

Текст #6
Идентификатор : 12
Формат : Timed Text
Режим смешивания : sbtl
Идентификатор кодека : tx3g
Продолжительность : 1 ч. 26 м.
Вид битрейта : Переменный
Битрейт : 83 бит/сек
Размер потока : 52,5 Кбайт (0%)
Язык : English
Default : Нет
Forced : Нет
Alternate group : 2
Дата кодирования : UTC 2020-04-13 04:00:02
Дата пометки : UTC 2020-04-13 04:10:42
tagc : public.main-program-content

Меню
Идентификатор : 13
Идентификатор кодека : text
Продолжительность : 1 ч. 27 м.
Язык : English
Дата кодирования : UTC 2020-04-13 04:10:42
Дата пометки : UTC 2020-04-13 04:10:42
Вид битрейта : CBR
Menu For : 1
00:00:00.000 : Chapter 01
00:05:08.558 : Chapter 02
00:10:35.468 : Chapter 03
00:15:46.946 : Chapter 04
00:19:35.257 : Chapter 05
00:25:14.805 : Chapter 06
00:29:25.764 : Chapter 07
00:34:20.558 : Chapter 08
00:39:46.968 : Chapter 09
00:45:01.741 : Chapter 10
00:49:07.611 : Chapter 11
00:53:40.926 : Chapter 12
00:56:36.560 : Chapter 13
01:00:01.014 : Chapter 14
01:03:45.947 : Chapter 15
01:06:02.458 : Chapter 16
01:10:54.584 : Chapter 17
01:18:09.476 : Chapter 18
01:20:21.315 : Chapter 19
01:21:11.325 : Chapter 20
Вид битрейта : Постоянный


Name: Семейка Аддамс (2019)
Artist: Conrad Vernon & Greg Tiernan
Media Kind: Movie
HD Video: 1080p
Genre: Для всей семьи
Release Date: 2019-10-11T07:00:00Z
Long Description: Основанная на знаменитых карикатурах Чарльза Аддамса из журнала «Нью-Йоркер», эта анимационная комедия рассказывает о противостоянии семейки Аддамс хитрой ведущей реалити-ТВ во время подготовки к грандиозному празднеству в фирменном стиле Аддамсов, на которое соберутся их многочисленные родственники. Роли озвучивали: Оскар Айзек, Шарлиз Терон, Хлоя Грейс Морец, Финн Вольфхард, Ник Кролл, Бетт Мидлер и Эллисон Дженни.
Rating: ru-movie|6+|150|
Studio: MGM
Cast: Oscar Isaac, Charlize Theron, Chloe Grace Moretz, Finn Wolfhard, Nick Kroll, Snoop Dogg, Bette Midler, Allison Janney, Martin Short, Catherine O'Hare
Director: Conrad Vernon & Greg Tiernan
Producers: Gail Berman, Conrad Vernon, Alex Schwartz, Alison O'Brien
Screenwriters: Matt Lieberman
Copyright: © 2019 Metro-Goldwyn-Mayer Pictures Inc.
content ID: 1479901173
iTunes Country: 143469

Скриншоты:


Все одноименные релизы в Клубе
Время раздачи: 24/7 (до появления первых 3-5 скачавших)

Релиз подготовлен для просмотра на Apple TV, iPad, iPhone, iPod Touch.
Для просмотра данного релиза на компьютере с ОС Windows рекомендуется использовать VLC media player
 Торрент: Платиновая раздача  Зарегистрирован
 
Скачать


Примагнититься
 Зарегистрирован:   13 Апр 2020 07:27:23
 Размер:   7.96 GB  (
 Рейтинг:   4.7 (Голосов: 14)
 Поблагодарили:   80
 Проверка:   Оформление проверено модератором 13 Апр 2020 10:39:55
Как cкачать  ·  Как раздать  ·  Правильно оформить  ·  Поднять ратио!  

_________________
«Всё против нас, только ветер навстречу…».
Apple iMac 21.5 (mid 2011) / Intel Core i5 2.7 GHz / AMD Radeon HD 6770M 512 Mb / 12GB DDR3 / Apple Magic Mouse, Apple Keyboard / macOS High Sierra 10.13.6 (17G14042)
Показать сообщения:   
Начать новую тему   Ответить на тему    Торрент-трекер NNM-Club -> Аудио и Видео -> Зарубежное видео HD для устройств Apple Часовой пояс: GMT + 3
Страница 1 из 1