Классический форум-трекер
canvas not supported
Нас вместе: 4 104 139

Осада / The Siege (1998) BDRip


 
 
RSS
Начать новую тему   Ответить на тему    Торрент-трекер NNM-Club -> Зарубежное кино -> Зарубежные Фильмы (HD*Rip/LQ, DVDRip, SATRip, VHSRip)
Автор Сообщение
POM80 ®
Стаж: 12 лет 2 мес.
Сообщений: 166
Ratio: 420,895
Поблагодарили: 5979
100%
witch.png
Осада / The Siege (1998) BDRip
Год выпуска: 1998
Производство: США
Слоган: «An enemy they can't see. A nation under siege. A crisis they can't control»
Жанры: боевик, триллер, драма, криминал
Перевод: Профессиональный (дублированный)
Субтитры: нет

Режиссер: Эдвард Цвик
Сценарий: Лоуренс Райт, Менно Мейес, Эдвард Цвик
Продюсер: Линда Обст, Питер Шиндлер, Эдвард Цвик, ...
Оператор: Роджер Дикинс
Композитор: Грэм Ревелл
Художник: Лилли Килверт, Крис Шрайвер, Джон Уорнке, ...
Монтаж: Стивен Розенблюм

Актеры: Дензел Вашингтон / Denzel Washington (Anthony «Hub» Hubbard, $ 12 000 000 ), Аннетт Бенинг / Annette Bening (Elise Kraft /Sharon Bridger, $ 3 000 000 ), Брюс Уиллис / Bruce Willis (Major General William Devereaux, $ 5 000 000 ), Тони Шэлуб / Tony Shalhoub (Agent Frank Haddad), Сами Буажила / Sami Bouajila (Samir Nazhde), Ахмед Бен Ларби / Ahmed Ben Larby (Sheik Achmed Bin Talal), Мосле Мохамед / Mosleh Mohamed (Muezzin), Лианна Пай / Lianna Pai (в титрах: Liana Pai) (Tina Osu)


Описание фильма: Когда в Бруклине взлетает на воздух автобус и на улицах Нью-Йорка разворачивается кровавый террор, Хаб — Хаббарт, глава Объединенного Антитеррористического Подразделения ФБР получает задание задержать террористов и предъявить им обвинение. Элиза Крафт — тайный оперативный агент ЦРУ. Она обладает ценными источниками информации в среде американцев арабского происхождения и тесно связана с ними.Хаб и Элиза работают вместе, объединившись для совместной борьбы против террористической группы. Но этого оказывается недостаточно. Требования общественности обеспечить безопасность граждан вынуждают президента США объявить чрезвычайное положение и обратиться за помощью к армии. Генерал Уильям Деверо решительно берется за дело по наведению военного порядка.

Бюджет: $70 000 000
Сборы в США: $40 981 289
Сборы в мире: + $75 691 623 = $116 672 912
Зрители: США 8.72 млн , Германия 1.73 млн , Испания 1.08 млн
Премьера (мир): 6 ноября 1998
Релиз на DVD: 11 марта 2010, «Флагман-Трейд»
Релиз на Blu-Ray: 27 августа 2009, «Двадцатый Век Фокс СНГ»
Рейтинг MPAA: Лицам до 17 лет обязательно присутствие взрослого

Продолжительность: 01:55:58
Качество видео: DVDRip
Формат: AVI
Видео кодек: XviD
Аудио кодек: AC3
Видео: 720x306 (2.35:1), 23.976 fps, XviD, 1 597 Kbps
Аудио: AC3, 192 Kbps, 48.0 KHz, 2 ch
Код: выделить все
General
Complete name                    : The Siege (Осада) 1998.avi
Format                           : AVI
Format/Info                      : Audio Video Interleave
File size                        : 1.46 GiB
Duration                         : 1h 55mn
Overall bit rate                 : 1 798 Kbps
Writing application              : VirtualDubMod 1.5.10.2 (build 2542/release)
Writing library                  : VirtualDubMod build 2542/release

Video
ID                               : 0
Format                           : MPEG-4 Visual
Format profile                   : Advanced Simple@L5
Format settings, BVOP            : Yes
Format settings, QPel            : No
Format settings, GMC             : No warppoints
Format settings, Matrix          : Custom
Codec ID                         : XVID
Codec ID/Hint                    : XviD
Duration                         : 1h 55mn
Bit rate                         : 1 597 Kbps
Width                            : 720 pixels
Height                           : 306 pixels
Display aspect ratio             : 2.35:1
Frame rate                       : 23.976 fps
Color space                      : YUV
Chroma subsampling               : 4:2:0
Bit depth                        : 8 bits
Scan type                        : Progressive
Bits/(Pixel*Frame)               : 0.302
Stream size                      : 1.29 GiB (89%)
Writing library                  : XviD 1.2.1 (UTC 2008-12-04)

Audio
ID                               : 1
Format                           : AC-3
Format/Info                      : Audio Coding 3
Mode extension                   : CM (complete main)
Codec ID                         : 2000
Duration                         : 1h 55mn
Bit rate mode                    : Constant
Bit rate                         : 192 Kbps
Channel(s)                       : 2 channels
Channel positions                : Front: L R
Sampling rate                    : 48.0 KHz
Bit depth                        : 16 bits
Stream size                      : 159 MiB (11%)
Alignment                        : Split accross interleaves
Interleave, duration             : 42 ms (1.00 video frame)
Interleave, preload duration     : 500 ms
«Осада» вызвала шумный общественный резонанс со стороны арабского населения Америки и сопровождалась целой чередой акций протеста. Арабы выступали категорически против того, чтобы их использовали в качестве «образа врага».
Скриншоты:

Время раздачи: 24/7, круглосуточно, до 10 скачавших
Все релизы Осада на NNM-CLUB
[NNM-Club.ru]_The Siege (Osada) 1998.avi.torrent
 Торрент: Платиновая раздача  Зарегистрирован
 
Скачать


 Зарегистрирован:   23 Авг 2009 16:10:29
 Размер:   1,46 GB  (
 Рейтинг:   4,9 (Голосов: 21)
 Поблагодарили:   89
 Проверка:   Оформление проверено модератором 23 Авг 2009 19:58:34
Как cкачать  ·  Как раздать  ·  Правильно оформить  ·  Поднять ратио!  
Показать сообщения:   
Начать новую тему   Ответить на тему    Торрент-трекер NNM-Club -> Зарубежное кино -> Зарубежные Фильмы (HD*Rip/LQ, DVDRip, SATRip, VHSRip) Часовой пояс: GMT + 3
Страница 1 из 1