Классический форум-трекер
canvas not supported
Нас вместе: 4 165 136

Охота / The Hunt (2020) BDRip [1080p] ATV [MVO]


 
 
RSS
Начать новую тему   Ответить на тему    Торрент-трекер NNM-Club -> Аудио и Видео -> Зарубежное видео HD для устройств Apple
Автор Сообщение
Весельчак У ®
Модератор Apple
Uploader 100+
Стаж: 7 лет 10 мес.
Сообщений: 12045
Ratio: 136.32
Поблагодарили: 352974
100%
Откуда: От Москвы недалеко...
ussr.gif
Охота / The Hunt (2020) BDRip [1080p] ATV«The Most Talked About Movie of the Year is One That No One's Actually Seen»
Производство: США / Blumhouse Productions, White Rabbit
Жанр: Боевик, комедия, триллер

Режиссер: Крэйг Зобел
Продюсер: Джейсон Блум, Дэймон Линделоф, Ник Кьюз
Актеры: Бетти Гилпин, Хилари Суэнк, Айк Баринхолц, Уэйн Дювалл, Итан Сапли, Эмма Робертс, Кристофер Берри, Стерджил Симпсон, Кейт Ноулин, Эми Мэдиган

Описание:
12 незнакомцев просыпаются в глухом лесу. Они понятия не имеют, где находятся и как здесь оказались. Они даже не подозревают, что были избраны… стать дичью. Сезон охоты официально объявляется открытым


Рейтинг MPAA: R (лицам до 17 лет обязательно присутствие взрослого)
Дата мировой премьеры: 11 марта 2020

Релиз от: NNMClub

Продолжительность: 01:30:02
Качество видео: BDRip 1080р
Перевод: Профессиональный многоголосый, авторский одноголосый
Субтитры: Русские (forced, full), английские (SDH)

Присутствует ненормативная лексика!

Видео: H.264, 1920x804 (2.40:1), ~10,0 Mbps, 23.976 fps
Аудио#1: AAC, 2.0 ch, 198 Kbps - Русский MVO, HDRezka Studio
Аудио#2: AAC, 2.0 ch, 197 Kbps - Русский AVO, М. Яроцкий
Аудио#3: AAC, 2.0 ch, 196 Kbps - English Original
Аудио#4: AC3, 6.0 ch, 448 Kbps - Русский MVO, HDRezka Studio
Аудио#5: AAC, 2.0 ch, 384 Kbps - Русский AVO, М. Яроцкий
Аудио#6: AC3, 6.0 ch, 640 Kbps - English Original

Общее
Полное имя : /Volumes/HDD/Movies/NNMClub/The.Hunt.2020.1080p.NNMClub.m4v
Формат : MPEG-4
Идентификатор кодека : M4V (M4V /M4A /mp42/isom)
Размер файла : 7,58 Гбайт
Продолжительность : 1 ч. 30 м.
Режим общего битрейта : Переменный
Общий поток : 12,1 Мбит/сек
Название фильма : Охота
Исполнитель : Craig Zobel
Композитор : Nathan Barr
Режиссёр : Craig Zobel
Исполнитель : Betty Gilpin / Hilary Swank / Ethan Suplee / Teri Wyble / Ike Barinholtz / Wayne Duvall / Emma Roberts / Christopher Berry / Sturgill Simpson / Kate Nowlin / Amy Madigan / Reed Birney / Glenn Howerton / Steve Coulter / Dean J. West / Vince Pisani / Steve Mokate / Sylvia Grace Crim / Jason Kirkpatrick / Macon Blair / J. C. MacKenzie / Tadasay Young / Hannah Alline / Jim Klock / Usman Ally / Ned Yousef / Iyad Hajjaj / Justin Hartley / Hans Marrero / Charli Slaughter
Сценарист : Damon Lindelof / Nick Cuse
Продюсер : Damon Lindelof / Jason Blum
Исполнительный продюсер : Craig Zobel, Steven R. Molen, Nick Cuse
Студия-производитель : Blumhouse Productions, Universal Pictures, White Rabbit Productions
Жанр : боевик, триллер, ужасы
Тип содержимого : Short Film
Дата записи : UTC 2020-03-11 12:00:00
Дата кодирования : UTC 2020-06-01 09:49:55
Дата пометки : UTC 2020-06-01 09:57:58
Обложка : Yes
LongDescription : Двенадцать незнакомых между собой людей оказываются в неизвестном месте, и не понимают как туда попали. Они ещё не знают, что на них открыта охота. А они - дичь...
ContentRating : mpaa|R|400|

Видео #1
Идентификатор : 1
Формат : AVC
Формат/Информация : Advanced Video Codec
Профиль формата : High@L4.1
Настройки формата : CABAC / 5 Ref Frames
Параметр CABAC формата : Да
Параметр ReFrames формата : 5 кадров
Идентификатор кодека : avc1
Идентификатор кодека/Информация : Advanced Video Coding
Продолжительность : 1 ч. 30 м.
Битрейт : 10 000 Кбит/сек
Ширина : 1 920 пикселей
Высота : 804 пикселя
Соотношение сторон : 2,40:1
Режим частоты кадров : Переменный
Частота кадров : 23,976 (23976/1000) кадра/сек
Минимальная частота кадров : 23,810 кадра/сек
Максимальная частота кадров : 24,390 кадра/сек
Цветовое пространство : YUV
Субдискретизация насыщенности : 4:2:0
Битовая глубина : 8 бит
Тип развёртки : Прогрессивная
Бит/(Пиксели*Кадры) : 0.270
Размер потока : 6,28 Гбайт (83%)
Библиотека кодирования : x264 core 159 r2991 1771b55
Настройки программы : cabac=1 / ref=5 / deblock=1:-3:-3 / analyse=0x3:0x133 / me=umh / subme=11 / psy=1 / psy_rd=1.00:0.00 / mixed_ref=1 / me_range=32 / chroma_me=1 / trellis=2 / 8x8dct=1 / cqm=0 / deadzone=21,11 / fast_pskip=0 / chroma_qp_offset=-2 / threads=12 / lookahead_threads=2 / sliced_threads=0 / nr=0 / decimate=1 / interlaced=0 / bluray_compat=0 / constrained_intra=0 / bframes=9 / b_pyramid=2 / b_adapt=2 / b_bias=0 / direct=3 / weightb=1 / open_gop=0 / weightp=2 / keyint=240 / keyint_min=23 / scenecut=40 / intra_refresh=0 / rc_lookahead=60 / rc=2pass / mbtree=0 / bitrate=10000 / ratetol=1.0 / qcomp=0.60 / qpmin=0 / qpmax=69 / qpstep=4 / cplxblur=20.0 / qblur=0.5 / vbv_maxrate=30000 / vbv_bufsize=33000 / nal_hrd=none / filler=0 / ip_ratio=1.40 / pb_ratio=1.30 / aq=3:0.80
Язык : English
Дата кодирования : UTC 2020-06-01 09:49:55
Дата пометки : UTC 2020-06-01 09:57:36
Menus : 12,13
Codec configuration box : avcC

Видео #2
Идентификатор : 13
Формат : JPEG
Идентификатор кодека : jpeg
Продолжительность : 1 ч. 30 м.
Вид битрейта : Переменный
Битрейт : 966 бит/сек
Ширина : 640 пикселей
Высота : 268 пикселей
Соотношение сторон : 2,40:1
Режим частоты кадров : Переменный
Частота кадров : 0,004 кадр/сек
Минимальная частота кадров : 0,002 кадр/сек
Максимальная частота кадров : 0,008 кадр/сек
Цветовое пространство : YUV
Субдискретизация насыщенности : 4:2:0
Битовая глубина : 8 бит
Метод сжатия : С потерями
Бит/(Пиксели*Кадры) : 1.408
Размер потока : 589 Кбайт (0%)
Язык : English
Default : Нет
Дата кодирования : UTC 2020-06-01 09:57:57
Дата пометки : UTC 2020-06-01 09:57:58
Menu For : 1
ColorSpace_ICC : RGB

Аудио #1
Идентификатор : 2
Формат : AAC LC
Формат/Информация : Advanced Audio Codec Low Complexity
Идентификатор кодека : mp4a-40-2
Продолжительность : 1 ч. 30 м.
Вид битрейта : Переменный
Битрейт : 198 Кбит/сек
Максимальный битрейт : 327 Кбит/сек
Каналы : 2 канала
Channel layout : L R
Частота : 48,0 КГц
Частота кадров : 46,875 кадров/сек (1024 SPF)
Метод сжатия : С потерями
Размер потока : 127 Мбайт (2%)
Язык : Russian
Default : Да
Alternate group : 1
Дата кодирования : UTC 2020-06-01 09:49:55
Дата пометки : UTC 2020-06-01 09:57:36
Fallback From : 5
tagc : public.main-program-content

Аудио #2
Идентификатор : 3
Формат : AAC LC
Формат/Информация : Advanced Audio Codec Low Complexity
Идентификатор кодека : mp4a-40-2
Продолжительность : 1 ч. 30 м.
Вид битрейта : Переменный
Битрейт : 197 Кбит/сек
Максимальный битрейт : 311 Кбит/сек
Каналы : 2 канала
Channel layout : L R
Частота : 48,0 КГц
Частота кадров : 46,875 кадров/сек (1024 SPF)
Метод сжатия : С потерями
Размер потока : 127 Мбайт (2%)
Язык : Russian
Default : Нет
Alternate group : 1
Дата кодирования : UTC 2020-06-01 09:49:55
Дата пометки : UTC 2020-06-01 09:57:36
Fallback From : 6
tagc : public.auxiliary-content

Аудио #3
Идентификатор : 4
Формат : AAC LC
Формат/Информация : Advanced Audio Codec Low Complexity
Идентификатор кодека : mp4a-40-2
Продолжительность : 1 ч. 30 м.
Вид битрейта : Переменный
Битрейт : 196 Кбит/сек
Максимальный битрейт : 341 Кбит/сек
Каналы : 2 канала
Channel layout : L R
Частота : 48,0 КГц
Частота кадров : 46,875 кадров/сек (1024 SPF)
Метод сжатия : С потерями
Размер потока : 126 Мбайт (2%)
Язык : English
Default : Нет
Alternate group : 1
Дата кодирования : UTC 2020-06-01 09:49:55
Дата пометки : UTC 2020-06-01 09:57:36
Fallback From : 7
tagc : public.main-program-content

Аудио #4
Идентификатор : 5
Формат : AC-3
Формат/Информация : Audio Coding 3
Коммерческое название : Dolby Digital
Идентификатор кодека : ac-3
Продолжительность : 1 ч. 30 м.
Вид битрейта : Постоянный
Битрейт : 448 Кбит/сек
Каналы : 6 каналов
Channel layout : L R C LFE Ls Rs
Частота : 48,0 КГц
Частота кадров : 31,250 кадров/сек (1536 SPF)
Метод сжатия : С потерями
Размер потока : 288 Мбайт (4%)
Язык : Russian
Service kind : Complete Main
Default : Inherited From: 2
Alternate group : 1
Дата кодирования : UTC 2020-06-01 09:49:55
Дата пометки : UTC 2020-06-01 09:57:36
Fallback To : 2
tagc : public.main-program-content

Аудио #5
Идентификатор : 6
Формат : AC-3
Формат/Информация : Audio Coding 3
Коммерческое название : Dolby Digital
Идентификатор кодека : ac-3
Продолжительность : 1 ч. 30 м.
Вид битрейта : Постоянный
Битрейт : 384 Кбит/сек
Каналы : 6 каналов
Channel layout : L R C LFE Ls Rs
Частота : 48,0 КГц
Частота кадров : 31,250 кадров/сек (1536 SPF)
Метод сжатия : С потерями
Размер потока : 247 Мбайт (3%)
Язык : Russian
Service kind : Complete Main
Default : Нет
Alternate group : 1
Дата кодирования : UTC 2020-06-01 09:49:55
Дата пометки : UTC 2020-06-01 09:57:36
Fallback To : 3
tagc : public.auxiliary-content

Аудио #6
Идентификатор : 7
Формат : AC-3
Формат/Информация : Audio Coding 3
Коммерческое название : Dolby Digital
Идентификатор кодека : ac-3
Продолжительность : 1 ч. 30 м.
Вид битрейта : Постоянный
Битрейт : 640 Кбит/сек
Каналы : 6 каналов
Channel layout : L R C LFE Ls Rs
Частота : 48,0 КГц
Частота кадров : 31,250 кадров/сек (1536 SPF)
Метод сжатия : С потерями
Размер потока : 412 Мбайт (5%)
Язык : English
Service kind : Complete Main
Default : Нет
Alternate group : 1
Дата кодирования : UTC 2020-06-01 09:49:55
Дата пометки : UTC 2020-06-01 09:57:36
Fallback To : 4
tagc : public.main-program-content

Текст #1
Идентификатор : 8
Формат : Timed Text
Режим смешивания : sbtl
Идентификатор кодека : tx3g
Продолжительность : 2 м. 7 с.
Вид битрейта : Переменный
Битрейт : 90 бит/сек
Размер потока : 1,40 Кбайт (0%)
Язык : Russian
Default : Да
Forced : Нет
Alternate group : 2
Дата кодирования : UTC 2020-06-01 09:49:55
Дата пометки : UTC 2020-06-01 09:57:36
tagc : public.subtitles.forced-only

Текст #2
Идентификатор : 9
Формат : Timed Text
Режим смешивания : sbtl
Идентификатор кодека : tx3g
Продолжительность : 1 ч. 25 м.
Вид битрейта : Переменный
Битрейт : 96 бит/сек
Размер потока : 59,9 Кбайт (0%)
Язык : Russian
Default : Нет
Forced : Нет
Alternate group : 2
Дата кодирования : UTC 2020-06-01 09:49:55
Дата пометки : UTC 2020-06-01 09:57:36
tagc : public.main-program-content

Текст #3
Идентификатор : 10
Формат : Timed Text
Режим смешивания : sbtl
Идентификатор кодека : tx3g
Продолжительность : 1 ч. 24 м.
Вид битрейта : Переменный
Битрейт : 63 бит/сек
Размер потока : 39,3 Кбайт (0%)
Язык : English
Default : Нет
Forced : Нет
Alternate group : 2
Дата кодирования : UTC 2020-06-01 09:49:55
Дата пометки : UTC 2020-06-01 09:57:36
tagc : public.main-program-content

Текст #4
Идентификатор : 11
Формат : Timed Text
Режим смешивания : sbtl
Идентификатор кодека : tx3g
Продолжительность : 1 ч. 30 м.
Вид битрейта : Переменный
Битрейт : 70 бит/сек
Размер потока : 46,4 Кбайт (0%)
Язык : English
Default : Нет
Forced : Нет
Alternate group : 2
Дата кодирования : UTC 2020-06-01 09:49:55
Дата пометки : UTC 2020-06-01 09:57:36
tagc : public.accessibility.transcribes-spoken-dialog

Меню
Идентификатор : 12
Идентификатор кодека : text
Продолжительность : 1 ч. 30 м.
Язык : English
Дата кодирования : UTC 2020-06-01 09:57:36
Дата пометки : UTC 2020-06-01 09:57:36
Menu For : 1
00:00:00.000 : Chapter 1
00:02:13.300 : Chapter 2
00:06:57.083 : Chapter 3
00:10:44.644 : Chapter 4
00:15:34.725 : Chapter 5
00:18:05.667 : Chapter 6
00:22:32.267 : Chapter 7
00:25:22.229 : Chapter 8
00:31:54.579 : Chapter 9
00:38:49.869 : Chapter 10
00:43:11.881 : Chapter 11
00:49:48.443 : Chapter 12
00:52:26.184 : Chapter 13
00:56:58.081 : Chapter 14
01:00:44.432 : Chapter 15
01:05:08.654 : Chapter 16
01:08:11.337 : Chapter 17
01:14:47.816 : Chapter 18
01:22:04.836 : Chapter 19
01:24:55.048 : Chapter 20


Name: Охота
Artist: Craig Zobel
Media Kind: Movie
HD Video: 1080p
Genre: боевик, триллер, ужасы
Release Date: 2020-03-11T12:00:00Z
Long Description: Двенадцать незнакомых между собой людей оказываются в неизвестном месте, и не понимают как туда попали. Они ещё не знают, что на них открыта охота. А они - дичь...
Rating: mpaa|R|400|
Studio: Blumhouse Productions, Universal Pictures, White Rabbit Productions
Cast: Betty Gilpin, Hilary Swank, Ethan Suplee, Teri Wyble, Ike Barinholtz, Wayne Duvall, Emma Roberts, Christopher Berry, Sturgill Simpson, Kate Nowlin, Amy Madigan, Reed Birney, Glenn Howerton, Steve Coulter, Dean J. West, Vince Pisani, Steve Mokate, Sylvia Grace Crim, Jason Kirkpatrick, Macon Blair, J. C. MacKenzie, Tadasay Young, Hannah Alline, Jim Klock, Usman Ally, Ned Yousef, Iyad Hajjaj, Justin Hartley, Hans Marrero, Charli Slaughter
Director: Craig Zobel
Producers: Damon Lindelof, Jason Blum
Executive Producer: Craig Zobel, Steven R. Molen, Nick Cuse
Screenwriters: Damon Lindelof, Nick Cuse
Composer: Nathan Barr

Скриншоты:


Все одноименные релизы в Клубе
Время раздачи: 24/7 (до появления первых 3-5 скачавших)

Релиз подготовлен для просмотра на Apple TV, iPad, iPhone, iPod Touch.
Для просмотра данного релиза на компьютере с ОС Windows рекомендуется использовать VLC media player
The.Hunt.2020.1080p.NNMClub.m4v.torrent
 Торрент: Платиновая раздача  Зарегистрирован
 
Скачать


Примагнититься
 Зарегистрирован:   01 Июн 2020 19:57:16
 Размер:   7.58 GB  (
 Рейтинг:   4.8 (Голосов: 25)
 Поблагодарили:   129
 Проверка:   Оформление проверено модератором 01 Июн 2020 21:08:06
Как cкачать  ·  Как раздать  ·  Правильно оформить  ·  Поднять ратио!  

_________________
«Всё против нас, только ветер навстречу…».
Apple iMac 21.5 (mid 2011) / Intel Core i5 2.7 GHz / AMD Radeon HD 6770M 512 Mb / 12GB DDR3 / Apple Trackpad, Apple Keyboard / macOS High Sierra 10.13.6 (17G14042)
Весельчак У ®
Модератор Apple
Uploader 100+
Стаж: 7 лет 10 мес.
Сообщений: 12045
Ratio: 136.32
Поблагодарили: 352974
100%
Откуда: От Москвы недалеко...
ussr.gif
Добавлена аудиодорожка с авторским переводом от М. Яроцкого

_________________
«Всё против нас, только ветер навстречу…».
Apple iMac 21.5 (mid 2011) / Intel Core i5 2.7 GHz / AMD Radeon HD 6770M 512 Mb / 12GB DDR3 / Apple Trackpad, Apple Keyboard / macOS High Sierra 10.13.6 (17G14042)
JaSlimper
Стаж: 11 лет 6 мес.
Сообщений: 237
Ratio: 26.766
Поблагодарили: 16
8.22%
ussr.gif
Какая хрень! Стёр.
Serg1qaz2wsx
Стаж: 10 лет 5 мес.
Сообщений: 26
Ratio: 0.291
0%
"Демократы" в США облажались с парой громких утечек. Этот фильм - попытка смягчить этот провал.
Попытка немного перевалить вину с преступников на обвинителей. Низко, впрочем, в их стиле.
evgeniy120
Стаж: 10 лет 9 мес.
Сообщений: 173
Ratio: 15.529
78.15%
Откуда: Кузбасс
russia.gif
Если американцы и дальше будут снимать фильмы в том же духе, пи...ц их кинематографу!
Показать сообщения:   
Начать новую тему   Ответить на тему    Торрент-трекер NNM-Club -> Аудио и Видео -> Зарубежное видео HD для устройств Apple Часовой пояс: GMT + 3
Страница 1 из 1