Классический форум-трекер
canvas not supported
Нас вместе: 4 211 004

Любовь и монстры / Love and Monsters (2020) WEB-DL [1080р] ATV [MVO]


 
 
RSS
Начать новую тему   Ответить на тему    Торрент-трекер NNM-Club -> Аудио и Видео -> Зарубежное видео HD для устройств Apple
Автор Сообщение
Весельчак У ®
Модератор Apple
Uploader 100+
Стаж: 9 лет
Сообщений: 15992
Ratio: 121.989
Поблагодарили: 449516
100%
Откуда: От Москвы недалеко...
ussr.gif
Любовь и монстры / Love and Monsters (2020) WEB-DL [1080р] ATV
Производство: Канада, США / 21 Laps Entertainment, Entertainment One, MTV Films
Жанр: Комедия, фантастика, боевик, приключения

Режиссер: Майкл Мэтьюз
Продюсер: Дэн Коэн, Becca Edelman, Шон Леви
Актеры: Дилан О Брайен, Джессика Хенвик, Майкл Рукер, Эллен Холлман, Мелани Занетти, Ариана Гринблатт, Амали Голден, Тэнди Райт, Тэсним Рок, Ларри Седар

Описание:
Семь лет назад человечество взорвало подлетавший к Земле астероид, но после этого столкнулось с последствиями - некоторые земные обитатели мутировали в гигантских монстров. Через год население Земли сократилось на 95%. У Джоэла погибли родители, и с тех пор он в компании таких же выживших обитает в подземном бункере. Недавно он поймал радиосигнал другой колонии, где живет его подростковая любовь Эйми, и теперь решил до неё добраться. И это будет непросто, ведь у Джоэла нет никаких навыков выживания, и более того - при виде монстров он впадает в оцепенение.



Рейтинг MPAA: PG-13 (детям до 13 лет просмотр нежелателен)
Дата мировой премьеры: 16 октября 2020

Релиз от: NNMClub

Продолжительность: 01:48:51
Качество видео: WEB-DL 1080р
Перевод: Профессиональный многоголосый (HDRezka Studio)
Субтитры: Русские (forced), украинские (forced), английские

Видео: H.264, 1920x80 (2.40:1), ~7443 kbps, 23.976 fps
Аудио#1: AAC, 2.0 ch, 198 Kbps - Русский MVO, HDRezka Studio
Аудио#2: AAC, 2.0 ch, 188 Kbps - Український MVO, HDRezka Studio
Аудио#3: AAC, 2.0 ch, 192 Kbps - English Original
Аудио#4: AC3, 6.0 ch, 448 Kbps - Русский MVO, HDRezka Studio
Аудио#5: AC3, 6.0 ch, 384 Kbps - Український MVO, HDRezka Studio
Аудио#6: AC3, 6.0 ch, 640 Kbps - English Original

Общее
Полное имя : /Volumes/HDD/Movies/NNMClub/Love.and.Monsters.2020.WEB-DL.1080p.NNMClub.m4v
Формат : MPEG-4
Идентификатор кодека : M4V (M4V /M4A /mp42/isom)
Размер файла : 7,23 Гбайт
Продолжительность : 1 ч. 48 м.
Режим общего битрейта : Переменный
Общий поток : 9 510 Кбит/сек
Название фильма : Love and Monsters
Исполнитель : Michael Matthews
Композитор : Marco Beltrami, Marcus Trumpp
Режиссёр : Michael Matthews
Исполнитель : Dylan O'Brien / Jessica Henwick / Michael Rooker / Dan Ewing / Ariana Greenblatt / Ellen Hollman / Tre Hale / Pacharo Mzembe / Senie Priti / Amali Golden / Te Kohe Tuhaka / Tasneem Roc / Thomas Campbell / Joel Pierce / Melanie Zanetti / Bruce Spence / Hazel Phillips / Miriama Smith / Andrew Buchanan / Tandi Wright / Damien Garvey / Julia Johnson / Ariu Lang Sio / Donnie Baxter / Helen Howard / Larry Cedar / Tonia Renee / Keiichi Enomoto
Сценарист : Brian Duffield / Brian Duffield / Matthew Robinson
Продюсер : Shawn Levy / Dan Cohen
Исполнительный продюсер : John H. Starke
Студия-производитель : 21 Laps Entertainment, Paramount Players, MTV Films, Aurum Producciones, Paramount
Жанр : Adventure, Science Fiction, Romance, Comedy
Тип содержимого : Short Film
Описание : Seven years after the Monsterpocalypse, Joel Dawson, along with the rest of humanity, has been living underground ever since giant creatures took control of the land. After reconnecting over radio with his high school girlfriend Aimee, who is now 80…
Дата записи : UTC 2020-10-16 12:00:00
Дата кодирования : UTC 2020-10-22 11:13:33
Дата пометки : UTC 2020-10-22 11:16:06
Обложка : Yes
ContentRating : mpaa|PG-13|300|

Видео
Идентификатор : 1
Формат : AVC
Формат/Информация : Advanced Video Codec
Профиль формата : High@L4
Настройки формата : CABAC / 4 Ref Frames
Параметр CABAC формата : Да
Параметр RefFrames формата : 4 кадра
Идентификатор кодека : avc1
Идентификатор кодека/Информация : Advanced Video Coding
Продолжительность : 1 ч. 48 м.
Вид битрейта : Постоянный
Битрейт : 7 443 Кбит/сек
Номинальный битрейт : 10 000 Кбит/сек
Ширина : 1 920 пикселей
Высота : 800 пикселей
Соотношение сторон : 2,40:1
Режим частоты кадров : Переменный
Частота кадров : 23,976 (24000/1001) кадра/сек
Минимальная частота кадров : 23,810 кадра/сек
Максимальная частота кадров : 24,390 кадра/сек
Цветовое пространство : YUV
Субдискретизация насыщенности : 4:2:0
Битовая глубина : 8 бит
Тип развёртки : Прогрессивная
Бит/(Пиксели*Кадры) : 0.202
Размер потока : 5,66 Гбайт (78%)
Язык : English
Дата кодирования : UTC 2020-10-22 11:13:33
Дата пометки : UTC 2020-10-22 11:16:05
Цветовой диапазон : Limited
Основные цвета : BT.709
Характеристики трансфера : BT.709
Коэффициенты матрицы : BT.709
Codec configuration box : avcC

Аудио #1
Идентификатор : 2
Формат : AAC LC
Формат/Информация : Advanced Audio Codec Low Complexity
Идентификатор кодека : mp4a-40-2
Продолжительность : 1 ч. 48 м.
Вид битрейта : Переменный
Битрейт : 198 Кбит/сек
Максимальный битрейт : 298 Кбит/сек
Каналы : 2 канала
Channel layout : L R
Частота : 48,0 КГц
Частота кадров : 46,875 кадров/сек (1024 SPF)
Метод сжатия : С потерями
Размер потока : 154 Мбайт (2%)
Язык : Russian
Default : Да
Alternate group : 1
Дата кодирования : UTC 2020-10-22 11:13:33
Дата пометки : UTC 2020-10-22 11:16:05
Fallback From : 5
tagc : public.main-program-content

Аудио #2
Идентификатор : 3
Формат : AAC LC
Формат/Информация : Advanced Audio Codec Low Complexity
Идентификатор кодека : mp4a-40-2
Продолжительность : 1 ч. 48 м.
Вид битрейта : Переменный
Битрейт : 188 Кбит/сек
Максимальный битрейт : 309 Кбит/сек
Каналы : 2 канала
Channel layout : L R
Частота : 48,0 КГц
Частота кадров : 46,875 кадров/сек (1024 SPF)
Метод сжатия : С потерями
Размер потока : 146 Мбайт (2%)
Язык : Ukrainian
Default : Нет
Alternate group : 1
Дата кодирования : UTC 2020-10-22 11:13:33
Дата пометки : UTC 2020-10-22 11:16:05
Fallback From : 6
tagc : public.main-program-content

Аудио #3
Идентификатор : 4
Формат : AAC LC
Формат/Информация : Advanced Audio Codec Low Complexity
Идентификатор кодека : mp4a-40-2
Продолжительность : 1 ч. 48 м.
Продолжительность оригинала : 1 ч. 48 м.
Вид битрейта : Переменный
Битрейт : 192 Кбит/сек
Максимальный битрейт : 328 Кбит/сек
Каналы : 2 канала
Channel layout : L R
Частота : 48,0 КГц
Частота кадров : 46,875 кадров/сек (1024 SPF)
Метод сжатия : С потерями
Размер потока : 152 Мбайт (2%)
Размер потока оригинала : 152 Мбайт (2%)
Язык : English
Default : Нет
Alternate group : 1
Дата кодирования : UTC 2020-10-22 11:13:33
Дата пометки : UTC 2020-10-22 11:16:03
Fallback From : 7
tagc : public.main-program-content

Аудио #4
Идентификатор : 5
Формат : AC-3
Формат/Информация : Audio Coding 3
Коммерческое название : Dolby Digital
Идентификатор кодека : ac-3
Продолжительность : 1 ч. 48 м.
Вид битрейта : Постоянный
Битрейт : 448 Кбит/сек
Каналы : 6 каналов
Channel layout : L R C LFE Ls Rs
Частота : 48,0 КГц
Частота кадров : 31,250 кадров/сек (1536 SPF)
Метод сжатия : С потерями
Размер потока : 349 Мбайт (5%)
Язык : Russian
Service kind : Complete Main
Default : Inherited From: 2
Alternate group : 1
Дата кодирования : UTC 2020-10-22 11:13:33
Дата пометки : UTC 2020-10-22 11:16:05
Fallback To : 2
tagc : public.main-program-content

Аудио #5
Идентификатор : 6
Формат : AC-3
Формат/Информация : Audio Coding 3
Коммерческое название : Dolby Digital
Идентификатор кодека : ac-3
Продолжительность : 1 ч. 48 м.
Вид битрейта : Постоянный
Битрейт : 384 Кбит/сек
Каналы : 6 каналов
Channel layout : L R C LFE Ls Rs
Частота : 48,0 КГц
Частота кадров : 31,250 кадров/сек (1536 SPF)
Метод сжатия : С потерями
Размер потока : 299 Мбайт (4%)
Язык : Ukrainian
Service kind : Complete Main
Default : Нет
Alternate group : 1
Дата кодирования : UTC 2020-10-22 11:13:33
Дата пометки : UTC 2020-10-22 11:16:05
Fallback To : 3
tagc : public.main-program-content

Аудио #6
Идентификатор : 7
Формат : AC-3
Формат/Информация : Audio Coding 3
Коммерческое название : Dolby Digital
Идентификатор кодека : ac-3
Продолжительность : 1 ч. 48 м.
Вид битрейта : Постоянный
Битрейт : 640 Кбит/сек
Каналы : 6 каналов
Channel layout : L R C LFE Ls Rs
Частота : 48,0 КГц
Частота кадров : 31,250 кадров/сек (1536 SPF)
Метод сжатия : С потерями
Размер потока : 498 Мбайт (7%)
Язык : English
Service kind : Complete Main
Default : Нет
Alternate group : 1
Дата кодирования : UTC 2020-10-22 11:13:33
Дата пометки : UTC 2020-10-22 11:16:03
Fallback To : 4
tagc : public.main-program-content

Текст #1
Идентификатор : 8
Формат : Timed Text
Режим смешивания : sbtl
Идентификатор кодека : tx3g
Продолжительность : 1 ч. 41 м.
Вид битрейта : Переменный
Битрейт : 4 бит/сек
Размер потока : 3,16 Кбайт (0%)
Язык : Russian
Default : Да
Forced : Нет
Alternate group : 2
Дата кодирования : UTC 2020-10-22 11:13:33
Дата пометки : UTC 2020-10-22 11:16:05
tagc : public.subtitles.forced-only

Текст #2
Идентификатор : 9
Формат : Timed Text
Режим смешивания : sbtl
Идентификатор кодека : tx3g
Продолжительность : 1 ч. 43 м.
Вид битрейта : Переменный
Битрейт : 3 бит/сек
Размер потока : 2,22 Кбайт (0%)
Язык : Ukrainian
Default : Нет
Forced : Нет
Alternate group : 2
Дата кодирования : UTC 2020-10-22 11:13:33
Дата пометки : UTC 2020-10-22 11:16:05
tagc : public.subtitles.forced-only

Текст #3
Идентификатор : 10
Формат : Timed Text
Режим смешивания : sbtl
Идентификатор кодека : tx3g
Продолжительность : 1 ч. 42 м.
Вид битрейта : Переменный
Битрейт : 75 бит/сек
Размер потока : 56,8 Кбайт (0%)
Язык : English
Default : Нет
Forced : Нет
Alternate group : 2
Дата кодирования : UTC 2020-10-22 11:13:33
Дата пометки : UTC 2020-10-22 11:16:05
tagc : public.main-program-content


Name: Любовь и монстры
Artist: Michael Matthews
Media Kind: Movie
HD Video: 1080р
Genre: приключения, фантастика, мелодрама, комедия
Release Date: 2020-10-16T12:00:00Z
Description: Во время нападения на человечество ужасных монстров у Джоэла погибли родители. Выжившие теперь прячутся от новых хозяев планеты под землей, но парень не оставляет надежды найти свою девушку. И вот, однажды поймав её сигнал по радио, он отправляется на…
Rating: mpaa|PG-13|300|
Studio: 21 Laps Entertainment, Paramount Players, MTV Films, Aurum Producciones, Paramount
Cast: Dylan O'Brien, Jessica Henwick, Michael Rooker, Dan Ewing, Ariana Greenblatt, Ellen Hollman, Tre Hale, Pacharo Mzembe, Senie Priti, Amali Golden, Te Kohe Tuhaka, Tasneem Roc, Thomas Campbell, Joel Pierce, Melanie Zanetti, Bruce Spence, Hazel Phillips, Miriama Smith, Andrew Buchanan, Tandi Wright, Damien Garvey, Julia Johnson, Ariu Lang Sio, Donnie Baxter, Helen Howard, Larry Cedar, Tonia Renee, Keiichi Enomoto
Director: Michael Matthews
Producers: Shawn Levy, Dan Cohen
Executive Producer: John H. Starke
Screenwriters: Brian Duffield, Brian Duffield, Matthew Robinson
Composer: Marco Beltrami, Marcus Trumpp

Скриншоты:


Все одноименные релизы в Клубе
Время раздачи: 24/7 (до появления первых 3-5 скачавших)

Релиз подготовлен для просмотра на Apple TV, iPad, iPhone, iPod Touch.
Для просмотра данного релиза на компьютере с ОС Windows рекомендуется использовать VLC media player
 Торрент: Платиновая раздача  Зарегистрирован
 
Скачать


Примагнититься
 Зарегистрирован:   22 Окт 2020 15:18:56
 Размер:   7.23 GB  (
 Рейтинг:   4.8 (Голосов: 19)
 Поблагодарили:   115
 Проверка:   Оформление проверено модератором 22 Окт 2020 19:26:46
Как cкачать  ·  Как раздать  ·  Правильно оформить  ·  Поднять ратио!  

_________________
«Всё против нас, только ветер навстречу…».
Apple iMac 21.5 (mid 2011) / Intel Core i5 2.7 GHz / AMD Radeon HD 6770M 512 Mb / 12GB DDR3 / Apple Magic Mouse, Apple Keyboard / macOS High Sierra 10.13.6 (17G14042)
Весельчак У ®
Модератор Apple
Uploader 100+
Стаж: 9 лет
Сообщений: 15992
Ratio: 121.989
Поблагодарили: 449516
100%
Откуда: От Москвы недалеко...
ussr.gif
Что-то пошло не так, сейчас пробую исправить, приношу свои извинения

Исправил :да:

_________________
«Всё против нас, только ветер навстречу…».
Apple iMac 21.5 (mid 2011) / Intel Core i5 2.7 GHz / AMD Radeon HD 6770M 512 Mb / 12GB DDR3 / Apple Magic Mouse, Apple Keyboard / macOS High Sierra 10.13.6 (17G14042)
SquallLeonhart
Стаж: 12 лет 5 мес.
Сообщений: 2697
Ratio: 120.537
Раздал: 52.34 TB
Поблагодарили: 1677
100%
Откуда: Final Fantasy
pirates.png
Дубляж ожидается?

_________________
Не буди лихо... пока оно тихо!
ZpSaid
Стаж: 9 лет
Сообщений: 536
Ratio: 11.359
Раздал: 34.8 TB
100%
Видео: H.264, 1920x80 (2.40:1)
:шок:

_________________
Джавдет трус! Абдула воин!
gansoff
Стаж: 12 лет 2 мес.
Сообщений: 13
Ratio: 6.806
3.01%
Хороший фильмец.
Показать сообщения:   
Начать новую тему   Ответить на тему    Торрент-трекер NNM-Club -> Аудио и Видео -> Зарубежное видео HD для устройств Apple Часовой пояс: GMT + 3
Страница 1 из 1