Классический форум-трекер
canvas not supported
Нас вместе: 4 093 499

Правила угона (2009) DVDRip (8 серий из 8)


 
 
RSS
Начать новую тему   Ответить на тему    Торрент-трекер NNM-Club -> Отечественные сериалы
Автор Сообщение
petrycco ®
Стаж: 11 лет 10 мес.
Сообщений: 147
Ratio: 14,807
Поблагодарили: 19335
100%
ukraine.gif
Правила угона (2009) DVDRip (8 серий из 8)
Год выпуска: 2009
Жанр: Боевик, Криминал, Детектив

Дата российской премьеры: 20.09.2009
Режиссер: Евгений Невский
Актеры: Александр Голубев, Иван Жидков, Ацамаз Байкулов, Ольга Гришина, Александр Кобзарь, Сергей Векслер, Дарья Мельникова, Владимир Яглыч, Валентин Терехов, Сергей Стрельников, Александр Головин, Андрей Ташков, Дмитрий Муляр, Александр Ефимов, Александр Карпов (III), Сергей Романюк, Ярослав Жалнин, Виктор Сарайкин, Михаил Жонин, Елена Полякова, Виолетта Трикова, Дмитрий Гаврилов (II), Денис Гранчак, Андрей Фролов (II)
Описание фильма:
Саша Волков работает на СТО, он хочет разбогатеть и со временем открыть собственный автомагазин. Несмотря на юный возраст, Александр профессионал в своем деле, всё свободное время Волков посвящает машинам. Но о честном заработке Саша может только мечтать: весь автобизнес в городе контролируют две враждующие группировки, одну из которых возглавляет депутат и бизнесмен Идрис Далаков, а другую владелец автосклада – Влад Ботов. Заручившись поддержкой властей и милицейского руководства, автомафия выработала особый кодекс – правила угона. Закрыв глаза на беспредел, самые влиятельные люди города могут не тревожиться о неприкосновенности своих авто.
Продолжительность: 8 серий по 47 мин
Качество видео: DVDRip
Видеокодек: Xvid
Битрейт видео: ~1194 kb/s
Размер кадра: 720 х 400
Аудиокодек: AC3 2.0
Битрейт аудио: аудио: 256 kb/s
Общее
Полное имя : C:\Users\КОТЕЛЬНАЯ\Desktop\Prawila.ugona.2009.avi\Prawila.ugona.1.iz.8.avi
Формат : AVI
Формат/Информация : Audio Video Interleave
Размер файла : 482 Мбайт
Продолжительность : 46 м.
Общий поток : 1457 Кбит/сек
Программа кодирования : VirtualDubMod 1.5.4.1 (build 2178/release)
Библиотека кодирования : VirtualDubMod build 2178/release

Видео
Идентификатор : 0
Формат : MPEG-4 Visual
Профиль формата : Advanced Simple@L5
Параметр BVOP формата : 1
Параметр QPel формата : Нет
Параметр GMC формата : Без точки перехода
Параметр матрицы формата : Выборочная
Идентификатор кодека : XVID
Идентификатор кодека/Подсказка : XviD
Продолжительность : 46 м.
Битрейт : 1194 Кбит/сек
Ширина : 720 пикселей
Высота : 400 пикселей
Соотношение сторон : 16:9
Частота кадров : 25,000 кадров/сек
Цветовое пространство : YUV
Субдискретизация насыщенности : 4:2:0
Битовая глубина : 8 бит
Тип развёртки : Прогрессивная
Метод сжатия : С потерями
Бит/(Пиксели*Кадры) : 0.166
Размер потока : 395 Мбайт (82%)
Библиотека кодирования : XviD 1.2.1 (UTC 2008-12-04)

Аудио
Идентификатор : 1
Формат : AC-3
Формат/Информация : Audio Coding 3
Расширение режима : CM (complete main)
Параметр Endianness формата : Big
Идентификатор кодека : 2000
Продолжительность : 46 м.
Вид битрейта : Постоянный
Битрейт : 256 Кбит/сек
Каналы : 2 канала
Расположение каналов : Front: L R
Частота : 48,0 КГц
Битовая глубина : 16 бит
Метод сжатия : С потерями
Размер потока : 84,7 Мбайт (18%)
Выравнивание : Разделение по промежуткам
Продолжительность промежутка : 96 мс. (2,40 видеокадра)
Время предзагрузки промежутка : 96 мс.
Скриншоты:

Правила угона на NNM-club
Время раздачи: (24/7 - круглосуточно)
Реставрация от: kitja6
[NNM-Club.ru]_Prawila.ugona.torrent
 Торрент: Платиновая раздача  Зарегистрирован
 
Скачать


 Зарегистрирован:   28 Сен 2009 18:57:41
 Размер:   3,76 GB  (
 Рейтинг:   4,6 (Голосов: 64)
 Поблагодарили:   290
 Проверка:   Оформление проверено модератором 28 Сен 2009 19:17:16
Как cкачать  ·  Как раздать  ·  Правильно оформить  ·  Поднять ратио!  
DikZZ
Стаж: 9 лет 3 мес.
Сообщений: 1
Ratio: 0,567
100%
Интересный сериал, посмотрел 3 серии, мне понравилось, буду качать, СПАСИБО!!!
Serega___
Стаж: 8 лет 3 мес.
Сообщений: 6
Ratio: 0,354
0%
ukraine.gif
Сериал супер!!! Кстате снимался в Николаеве.
suh1943
Стаж: 11 лет 4 мес.
Сообщений: 159
Ratio: 1,816
100%
Откуда: Ивано-Франковск
ukraine.gif
:клево:
sakost
Стаж: 4 года 6 мес.
Сообщений: 322
Ratio: 172,51
100%
Откуда: Одесса
ussr.gif
Интерестный сериал !
Показать сообщения:   
Начать новую тему   Ответить на тему    Торрент-трекер NNM-Club -> Отечественные сериалы Часовой пояс: GMT + 3
Страница 1 из 1