Классический форум-трекер
canvas not supported
Нас вместе: 4 210 565

Ассасин: Битва миров / Ci sha xiao shuo jia (A Writer's Odyssey: Assassin in red) (2021) WEB-DL [H.265/2160p-LQ] [4K, HDR, 10-bit]


 
 
RSS
Начать новую тему   Ответить на тему    Торрент-трекер NNM-Club -> Зарубежное кино -> Азиатское кино (HD, FHD, UHD)
Автор Сообщение
Rost55 ®
Стаж: 12 лет 5 мес.
Сообщений: 1067
Ratio: 1306.786
Поблагодарили: 108423
100%
Ассасин: Битва миров / Ci sha xiao shuo jia (A Writer's Odyssey: Assassin in red) (2021) WEB-DL [H.265/2160p-LQ]
Производство: Китай / Free Whale Pictures, Huace Pictures
Жанр: Фэнтези, боевик

Режиссер: Лу Ян
Актеры: Лэй Цзяинь, Ян Ми, Дун Цзыцзянь, Юй Хэвэй, Го Цзинфэй, Ван Шэнди, Тун Лия, Дун Цзэ, Ян И, Лю Тяньцзо

Описание:
В неком фэнтезийном мире правит жестокий Бог, которому нужны лишь смерть и разрушения. Потеряв сестру, но обретя волшебный доспех, молодой воин Кунвэнь отправляется в путешествие, чтобы разыскать и убить Бога. В это время в нашем мире мужчина Гуань Нин уже шесть лет находится на грани отчаяния, разыскивая пропавшую дочку. Он выходит на торговцев детьми, но полиция ошибочно принимает его за преступника и арестовывает. Сбежать Нину помогает ассистентка влиятельного бизнесмена и предлагает ему сделку. Один популярный писатель в данный момент пишет роман в жанре фэнтези, который каким-то образом вредит здоровью её босса, а Нин в обмен на информацию о местонахождении дочери должен этого писателя убить.


Возраст: 18+ (зрителям, достигшим 18 лет. запрещено для детей)
Дата мировой премьеры: 12 февраля 2021
Дата российской премьеры: 3 июня 2021

Продолжительность: 02:09:52
Качество видео: WEB-DL
Перевод: Дублированный (iTunes), Профессиональный многоголосый (HDRezka Studio)
Язык озвучки: Русский, украинский, китайский
Субтитры: Русские, Украинские (Forced), Английские, Китайские (хардсаб)

Видео: HEVC/H.265, 3840x2080, ~15.6 Mbps
Аудио 1: AC3, 6 ch, 384 Kbps - Русский (DUB, iTunes)
Аудио 2: AC3, 2 ch, 192 Kbps - Русский (MVO, HDRezka Studio)
Аудио 3: AC3, 6 ch, 384 Kbps - Украинский (DUB, iTunes)
Аудио 4: E-AC3, 6 ch, 256 Kbps - Китайский
Скриншоты:


Все одноименные релизы в Клубе

Время раздачи: 24/7 (мультитрекерная раздача)
[NNMClub.to]_A.Writer's.Odyssey.(2021).HDR.WEB-DL.2160p.torrent
 Торрент: Платиновая раздача  Зарегистрирован
 
Скачать


Примагнититься
 Зарегистрирован:   17 Июл 2021 20:57:55
 Размер:   15.3 GB  (
 Рейтинг:   4.9 (Голосов: 66)
 Поблагодарили:   377
 Проверка:   Оформление проверено модератором 17 Июл 2021 21:33:06
Как cкачать  ·  Как раздать  ·  Правильно оформить  ·  Поднять ратио!  
Rudi.D
Стаж: 12 лет 7 мес.
Сообщений: 10
Ratio: 1.898
0.13%
ukraine.gif
В принципе, мне фильм понравился.
Да, чудеса китайской съемки и графики с летящими человеками никуда не делась, она и тут есть.
Но ее не так много и фильм в общем это не портить.
Для меня, было бы лучше, если бы они весь фильм посвятили этому облачному городу. Монстры, демоны, боги, духи и все такое.
amazai
Стаж: 11 лет 9 мес.
Сообщений: 26
Ratio: 84.634
100%
russia.gif
А фильм смотрится гораздо интереснее, если проводить аналогии и параллели с реалиями.Смотря на сколько фантазии хватит.Ну например, рыжегривого сравнить с Жорой Уашинктоном. Воровство детей, с давлением на их мировоззрение. Ну а любовь пендосии к атакам с воздуха, так можно и с драконами с маслом. И обязательно, чтоб все с друг с другом воевали. А они подольют масла в огонь. И так можно продолжать и продолжать. Ищите эти сходства с современностью сами (до чего уж рыжегривый напоминает статуи Жорки). Приятного просмотра басни китайского Крылова.
ypa24
Стаж: 12 лет 5 мес.
Сообщений: 18
Ratio: 106.646
100%
russia.gif
Интересный фильм! Жизненный!
Графика на высоте!
Сюжет анимешнозамороченный, но хэпиенд почти диснеевский присутствует!
Взрослым детям смотреть можно... младшим, если есть иммунитет к кровавым тинтаклям.. :)
Rost55 ®
Стаж: 12 лет 5 мес.
Сообщений: 1067
Ratio: 1306.786
Поблагодарили: 108423
100%
Добавлен дубляж от iTunes
Дулин
Стаж: 12 лет 2 мес.
Сообщений: 69
Ratio: 3.753
0.15%
russia.gif
На третьем скрине китайский гарри поттер
mikos74
RG NNM Club Video
Модератор Видео
Uploader 100+
RG Всё лучшее детям

Online
Стаж: 8 лет 2 мес.
Сообщений: 1306
Ratio: 190.981
Раздал: 320.5 TB
Поблагодарили: 143300
100%
Откуда: Ust-Katav
ussr.gif
Спасибо! Делаю рип на 1080p.
Rostislav​DeLarvise​
Стаж: 10 лет 1 мес.
Сообщений: 22
Ratio: 24.764
100%
witch.png
впечатление такое, как будто скрины из игры какой то , из катсцен. уровень графена впечатляет. сюжет правда китайцы еще не научились такой масштабный продумывать до конца , но в цуелом попытка неплохая. вполне смотрибельно.
за релиз спасибо.
sanychel
Стаж: 10 лет 3 мес.
Сообщений: 136
Ratio: 5.275
Поблагодарили: 876
6.71%
С исходником какие то проблемы, на ПК идет нормально, на X3 зависает и рассыпается.
DaggetMOV
Uploader 100+
Стаж: 13 лет 1 мес.
Сообщений: 206
Ratio: 15K
Поблагодарили: 8948
100%
nnm-club.gif
sanychel писал(а): Перейти к сообщению
С исходником какие то проблемы

Есть такое. Попробуйте перепаковать например последним тулниксом (v59) и увидите чудесное превращение "Размер потока: 14,2 Гбайт" в "Размер потока: 9,2 Гбайт".
И главный вопрос - как сохранились метаданные HDR в древней mkvmerge v8.3.0? Она знать не знает ни про какой HDR
Показать сообщения:   
Начать новую тему   Ответить на тему    Торрент-трекер NNM-Club -> Зарубежное кино -> Азиатское кино (HD, FHD, UHD) Часовой пояс: GMT + 3
Страница 1 из 1