Классический форум-трекер
canvas not supported
Нас вместе: 4 172 613

Моя геройская академия [ТВ-5] / Boku no Hero Academia 5 / My Hero Academia Season 5 [2021, TV, 25 ep] WEB-DL 1080p Rus


 
 
RSS
Начать новую тему   Ответить на тему    Торрент-трекер NNM-Club -> Аниме с озвучкой -> Аниме с озвучкой (FullHD)
Автор Сообщение
Ampho_DnB ®
RG Аниме
Uploader 100+
Стаж: 9 лет 10 мес.
Сообщений: 4077
Ratio: 360.209
Поблагодарили: 94061
100%
Откуда: Деревня Кукуево
nnm-club.gif
Моя геройская академия [ТВ-5]
Boku no Hero Academia 5
My Hero Academia Season 5

Жанр: приключения, комедия
Тип: TV-сериал
Продолжительность: 25 эпизодов по 25 минут
Выпуск: c 27.03.2021 по 25.09.2021
Автор: Хорикоси Кохэй
Снято по манге: Boku no Hero Academia
Режиссер: Нагасаки Кэндзи
Производство: Bones
Информационные ссылки: AniDB || World Art || MAL || ANN
Релиз подготовлен студией Crunchyroll
  • Тип озвучки: Многоголосая, закадровая

Описание:
Каждый герой должен досконально владеть своим даром. Чтобы умело его контролировать понадобится обучение. Специально для такого открыли Геройскую Академию. Но можно ли туда попасть простому человеку, который не имеет никаких способностей? На самом деле с даром можно не только родится, а и получить в награду от супергероя.

Простой парнишка Идзука Мидория не обладает особым талантом, но зато у него есть нечто большее, что невозможно передать - доброе сердце, которое наполнено храбростью и отвагой. Идзука очень сожалеет что родился простым человеком. Однажды в его жизни произошло событие, которое перевернет привычный мир и заставит жить по-новому. На пути парня встречается легендарный герой Всемогущий, который обладает невероятными силами. Старому герою понравился юнец и он решает поделиться своими знаниями. Кроме того, Всемогущий делает Мидорию своим преемником и готовиться передать ему силы. Но получить дар не так уж просто, ведь для неподготовленного человека он станет смертельным. Чтобы подготовиться, парень отправляется учиться в Геройскую Академию.

Учёба даётся непросто, если разум готов, подводит тело. Идзука почти опускает руки, но ему на помощь приходят учителя, которые не собираются сдаваться. Они доносят парню главную мысль, что в бою побеждает не грубая сила, а светлая голова. Чтобы побеждать нужно думать, кроме этого ещё научиться работать в команде.
Качество: WEB-DLRip | Энкод: SubsPlease
Язык озвучки: Японский и Русский
Формат: MKV
Видео: x264, 1920x1080, ~8 000 kbps, 23.976 fps
Аудио: AAC, 128 kbps, 44.1 kHz, 2 ch
Аудио: AAC, 128 kbps, 44.1 kHz, 2 ch
01. Всем собраться, класс 1-А!
02. Остатки
03. Столкновение классов А и Б
04. Ты можешь, Синсо!
05. Операция "Новые приёмы"
06. Предвидение
07. Третий бой
08. Финал третьего поединка
09. Ранняя пташка
10. То, что унаследовано
11. Наша потасовка
12. Новая сила и Все-за-одного
13. С Рождеством!
14. В агентство Индивора
15. Шаг за шагом
16. Давно не виделись, Селки
17. Адская семейка Тодороки
18. Непростительное
19. Другого такого героя нет
20. Моя злодейская академия
21. Праздник возрождения
22. Парад опечаленного
23. Истоки Тэнко Симуры
24. Истоки Томуры Сигараки
25. Высокое синее небо
General
Unique ID : 80348072265395036171990847813327083735 (0x3C7279D052186668397DFED7D52158D7)
Complete name : Boku no Hero Academia S5 [Crunchyroll]\[Crunchyroll] Boku no Hero Academia S5 - 01 [1080p].mkv
Format : Matroska
Format version : Version 4
File size : 1.37 GiB
Duration : 23 min 50 s
Overall bit rate : 8 240 kb/s
Encoded date : UTC 2021-08-23 03:48:18
Writing application : mkvmerge v60.0.0 ('Are We Copies?') 64-bit
Writing library : libebml v1.4.2 + libmatroska v1.6.4

Video
ID : 1
Format : AVC
Format/Info : Advanced Video Codec
Format profile : High@L4
Format settings : CABAC / 4 Ref Frames
Format settings, CABAC : Yes
Format settings, Reference : 4 frames
Codec ID : V_MPEG4/ISO/AVC
Duration : 23 min 50 s
Bit rate : 8 000 kb/s
Width : 1 920 pixels
Height : 1 080 pixels
Display aspect ratio : 16:9
Frame rate mode : Constant
Frame rate : 23.976 (24000/1001) FPS
Color space : YUV
Chroma subsampling : 4:2:0
Bit depth : 8 bits
Scan type : Progressive
Bits/(Pixel*Frame) : 0.161
Stream size : 1.33 GiB (97%)
Writing library : x264 core 142
Encoding settings : cabac=1 / ref=4 / deblock=1:1:1 / analyse=0x3:0x113 / me=umh / subme=8 / psy=1 / psy_rd=0.40:0.00 / mixed_ref=1 / me_range=16 / chroma_me=1 / trellis=1 / 8x8dct=1 / cqm=0 / deadzone=21,11 / fast_pskip=1 / chroma_qp_offset=-2 / threads=12 / lookahead_threads=2 / sliced_threads=0 / nr=0 / decimate=1 / interlaced=0 / bluray_compat=0 / constrained_intra=0 / bframes=0 / weightp=2 / keyint=96 / keyint_min=48 / scenecut=40 / intra_refresh=0 / rc_lookahead=48 / rc=2pass / mbtree=1 / bitrate=8000 / ratetol=1.0 / qcomp=0.60 / qpmin=0 / qpmax=69 / qpstep=4 / cplxblur=20.0 / qblur=0.5 / vbv_maxrate=12000 / vbv_bufsize=18000 / nal_hrd=none / filler=0 / ip_ratio=1.40 / aq=1:0.60
Default : Yes
Forced : No

Audio #1
ID : 2
Format : AAC LC
Format/Info : Advanced Audio Codec Low Complexity
Codec ID : A_AAC-2
Duration : 23 min 50 s
Bit rate : 128 kb/s
Channel(s) : 2 channels
Channel layout : L R
Sampling rate : 44.1 kHz
Frame rate : 43.066 FPS (1024 SPF)
Compression mode : Lossy
Stream size : 21.8 MiB (2%)
Language : Russian
Default : Yes
Forced : No

Audio #2
ID : 3
Format : AAC LC
Format/Info : Advanced Audio Codec Low Complexity
Codec ID : A_AAC-2
Duration : 23 min 50 s
Bit rate : 128 kb/s
Channel(s) : 2 channels
Channel layout : L R
Sampling rate : 44.1 kHz
Frame rate : 43.066 FPS (1024 SPF)
Compression mode : Lossy
Stream size : 21.8 MiB (2%)
Language : Japanese
Default : Yes
Forced : No


Время раздачи: До первых сидов
[NNMClub.to]_Boku no Hero Academia S5 [Crunchyroll].torrent
 Торрент: Платиновая раздача  Зарегистрирован
 
Скачать


Примагнититься
 Зарегистрирован:   09 Окт 2021 12:42:35
 Размер:   34.3 GB  (
 Рейтинг:   5 (Голосов: 20)
 Поблагодарили:   40
 Проверка:   Оформление проверено модератором 09 Окт 2021 14:42:55
Как cкачать  ·  Как раздать  ·  Правильно оформить  ·  Поднять ратио!  
sassay_kudasay
Стаж: 1 год 8 мес.
Сообщений: 2
Ratio: 0.199
30.99%
Здравствуйте, есть ещё хорошая озвучка "Dream Cast", орушка, индоминус рекс, инферно фантом, риз фишер, ника ленина, трина д, нынишние и бывшие участники анидаба, у них чёткая озвучка, почему б не ознакомить людей с хорошей озвучкой? У них в телеге канал есть, и чатик, заране спасибо)
Tedeika
Стаж: 3 года 5 мес.
Сообщений: 7
Ratio: 0.05
9.09%
Перевод способностей и имён плохой, ещё и голос анкорда.
Рекомендую профессиональную озвучку от Tvshows, они все 5 сезонов озвучили.
Ampho_DnB ®
RG Аниме
Uploader 100+
Стаж: 9 лет 10 мес.
Сообщений: 4077
Ratio: 360.209
Поблагодарили: 94061
100%
Откуда: Деревня Кукуево
nnm-club.gif
Tedeika писал(а): Перейти к сообщению
Перевод способностей и имён плохой, ещё и голос анкорда.
Рекомендую профессиональную озвучку от Tvshows, они все 5 сезонов озвучили.

Скиньте информацию в ЛС, что данная студия озвучивала этот сериал.
Tedeika
Стаж: 3 года 5 мес.
Сообщений: 7
Ratio: 0.05
9.09%
Ampho_DnB
Скинул в лс. Тут на трекере есть 1 и 2 сезон с их озвучкой, хорошо бы и на 3-5 добавить, плюс овы от них есть.
Показать сообщения:   
Начать новую тему   Ответить на тему    Торрент-трекер NNM-Club -> Аниме с озвучкой -> Аниме с озвучкой (FullHD) Часовой пояс: GMT + 3
Страница 1 из 1