Классический форум-трекер
canvas not supported
Нас вместе: 4 193 781

100-man no Inochi no Ue ni Ore wa Tatte Iru | I`m Standing on a Million Lives | Я стою на миллионе трупов [2020, TV, 24 из 24] BDRip 1080p 10-Bit Raw+Rus


 
 
RSS
Начать новую тему   Ответить на тему    Торрент-трекер NNM-Club -> Аниме с озвучкой -> Аниме с озвучкой (FullHD)
Автор Сообщение
хИНАРИх ®
Uploader 100+
Стаж: 5 лет 4 мес.
Сообщений: 753
Ratio: 15K
Раздал: 231.8 TB
Поблагодарили: 11912
100%
roody.gif
100-man no Inochi no Ue ni Ore wa Tatte Iru
I`m Standing on a Million Lives
Я стою на миллионе трупов

Жанр: Приключения, фэнтези
Тип: TВ-сериал
Количество серий: 24 из 24
Продолжительность: 24 серии по 24 минуты
Период выхода: с 02.10.2020 по 18.12.2020 и с 10.07.2021 по 25.09.2021
Производство: Maho Film
Режиссер: Хабара Кумико
Снято по манге: Я стою на миллионе трупов
Автор оригинала: Ямакава Наоки
Ссылки: World-Art, Ani-DB, MyAnimeList, Shikimori
Описание: Ученик третьего курса средней школы Ёцуя Юсуке попадает в альтернативный мир, похожий на игру. Он становится третьим игроком и берет на себя опасный квест со своими одноклассниками Синдо Иу и Хакодзаки Кусуэ, которые были перенесены туда ранее. Холодный Юсуке избегает эмоциональности и беспристрастно исследует все элементы, иногда даже играя с жизнями своих товарищей. Сможет ли он защитить свою группу от атак монстров, сложных инцидентов и могущественных коварных врагов и выиграть игру?
Качество видео: BDRip
Видео: AVC, 10 bit, 1920x1080, ~6844 Kb/s
Аудио №1: FLAC, 2ch, 48 KHz, 672 Kb/s | Звук: Японский
Аудио №2: AAC, 2ch, 44.1 KHz, 129 Kb/s | Звук: Русский - многоголосая: [Crunchyroll]
Субтитры №1: Русские | Перевод от: [Crunchyroll]
Субтитры №2: Русские | Перевод от: [SovetRomantica]

Complete name : [IrizaRaws] 100-man no Inochi no Ue ni Ore wa Tatte Iru - 01 (BDRip 1920x1080 x264 10bit FLAC).mkv
Format : Matroska
Format version : Version 4
File size : 1.24 GiB
Duration : 23 min 41 s
Overall bit rate mode : Variable
Overall bit rate : 7 517 kb/s
Encoded date : UTC 2021-10-13 18:27:45
Writing application : mkvmerge v60.0.0 ('Are We Copies?') 64-bit
Writing library : libebml v1.4.2 + libmatroska v1.6.4

Video
ID : 1
Format : AVC
Format/Info : Advanced Video Codec
Format profile : High 10@L5.2
Format settings : CABAC / 8 Ref Frames
Format settings, CABAC : Yes
Format settings, Reference : 8 frames
Codec ID : V_MPEG4/ISO/AVC
Duration : 23 min 41 s
Bit rate : 6 844 kb/s
Width : 1 920 pixels
Height : 1 080 pixels
Display aspect ratio : 16:9
Frame rate mode : Constant
Frame rate : 23.976 (24000/1001) FPS
Color space : YUV
Chroma subsampling : 4:2:0
Bit depth : 10 bits
Scan type : Progressive
Bits/(Pixel*Frame) : 0.138
Stream size : 1.13 GiB (91%)
Writing library : x264 core 164 r3065 ae03d92
Encoding settings : cabac=1 / ref=8 / deblock=1:-2:-2 / analyse=0x3:0x113 / me=umh / subme=9 / psy=1 / psy_rd=0.70:0.00 / mixed_ref=0 / me_range=32 / chroma_me=1 / trellis=2 / 8x8dct=1 / cqm=0 / deadzone=21,11 / fast_pskip=0 / chroma_qp_offset=-2 / threads=22 / lookahead_threads=3 / sliced_threads=0 / nr=0 / decimate=1 / interlaced=0 / bluray_compat=0 / constrained_intra=0 / bframes=9 / b_pyramid=2 / b_adapt=2 / b_bias=0 / direct=0 / weightb=1 / open_gop=0 / weightp=2 / keyint=250 / keyint_min=23 / scenecut=40 / intra_refresh=0 / rc=crf / mbtree=0 / crf=17.5 / qcomp=1.00 / qpmin=0 / qpmax=40 / qpstep=4 / ip_ratio=1.40 / pb_ratio=1.30 / aq=1:1.00
Default : Yes
Forced : No

Audio
ID : 2
Format : FLAC
Format/Info : Free Lossless Audio Codec
Codec ID : A_FLAC
Duration : 23 min 41 s
Bit rate mode : Variable
Bit rate : 672 kb/s
Channel(s) : 2 channels
Channel layout : L R
Sampling rate : 48.0 kHz
Frame rate : 11.719 FPS (4096 SPF)
Bit depth : 16 bits
Compression mode : Lossless
Stream size : 114 MiB (9%)
Title : Main FLAC 2.0
Writing library : libFLAC 1.3.3 (UTC 2019-08-04)
Language : Japanese
Default : Yes
Forced : No

Menu
00:00:00.000 : Intro
00:01:01.978 : OP
00:02:32.026 : Part A
00:10:02.018 : Part B
00:21:40.048 : ED
00:23:10.013 : Special
01. Неподходящие герои
02. Город, который я так ненавижу
03. Твоя помощь
04. Кахавэль из Кортнэла
05. Цена жизни
06. Древние руины
07. Воин света и посторонний из мрака
08. Убийство не игрока
09. Волнительный финал
10. Юскэ Ёцуя умирает
11. Мадзиха навсегда
12. Лето убийцы
13. Отправляемся на остров Дзиффон
14. Яана и Аой работают Вайкдам
15. Не быть нам борцами за справедливость
16. Плавучий остров
17. Лето убийцы
18. Им остаётся только смотреть
19. Видеоролик и шестой герой
20. Путь к смерти
21. Нападение чудовищ
22. Желание уничтожить
23. Драконий епископ
24. На миллион трупов



Время раздачи: круглосуточно
[NNMClub.to]_100-man no Inochi no Ue ni Ore wa Tatte Iru -- [YA stoyu na millione trupov].torrent
 Торрент: Золотая раздача  Зарегистрирован
 
Зарегистрируйтесь и скачайте торрент!
172 KB

Примагнититься
 Зарегистрирован:   16 Апр 2022 01:16:43
 Размер:   29.7 GB  (
 Рейтинг:    (Голосов: 8)
 Поблагодарили:   23
 Проверка:   Оформление проверено модератором 16 Апр 2022 14:14:11
Как cкачать  ·  Как раздать  ·  Правильно оформить  ·  Поднять ратио!  
Показать сообщения:   
Начать новую тему   Ответить на тему    Торрент-трекер NNM-Club -> Аниме с озвучкой -> Аниме с озвучкой (FullHD) Часовой пояс: GMT + 3
Страница 1 из 1