Классический форум-трекер
canvas not supported
Нас вместе: 4 193 478

Bakumatsu Kikansetsu Irohanihoheto | Intrigue in the Bakumatsu: Irohanihoheto | Борьба за власть времён бакумацу - никто не вечен [2006, ONA, 26 из 26] BDRip 720p 10-bit raw


 
 
RSS
Начать новую тему   Ответить на тему    Торрент-трекер NNM-Club -> Аниме с субтитрами -> Аниме (HD)
Автор Сообщение
хИНАРИх ®
Uploader 100+
Стаж: 5 лет 4 мес.
Сообщений: 743
Ratio: 15K
Раздал: 231.6 TB
Поблагодарили: 11898
100%
roody.gif
Bakumatsu Kikansetsu Irohanihoheto
Intrigue in the Bakumatsu: Irohanihoheto
Борьба за власть времён бакумацу - никто не вечен

Жанр: Приключения, история, мистика, драма
Тип: ONA [Original net animation]
Количество серий: 26 из 26
Продолжительность: 26 серий по 25 минут
Период выхода: с 06.10.2006 по 06.04.2007
Производство: Sunrise
Режиссер: Такахаси Рёсукэ
Автор оригинала: Такахаси Рёсукэ
Ссылки: World-Art, Ani-DB, MyAnimeList, Shikimori
Описание: Действие происходит в эпоху Реставрации Мэйдзи непосредственно предшествующей падению сегуната Токугава, в январе 1868 года, ровно через три месяца после убийства легендарного самурая и предпринимателя Ремы Сакамото, и накануне начала Войны Года Дракона, гражданской войны, в которой решилась судьба реставрации императорского правления. Главный герой сериала - молодой ронин по имени Едзиро Акидзуки, бывший телохранитель Ремы, который не смог предотвратить его убийство.

Сериал хоть и основан на исторических событиях и многие совершенно реальные люди мелькают на экране (включая Сайго Такамори, одного из предводителей Реставрации, и уже упомянутого Ремы), тем не менее история Едзиро скорее фантастическая. Согласно мифологии сериала, он принадлежит к некой неформальной касте (или, наверное, лучше сказать что ему судьбой уготована эта роль) "Вечных Убийц", группы людей, которые сражаются с древним артефактом под названием "Глава Завоевателя", которая, по легенде, может в неспокойные времена помочь пассионарию обрести власть над всем государством
Качество видео: BDRip
Видео: AVC, 10 bit, 1280x720, ~8940 Kb/s
Аудио: AAC, 2ch, 48 KHz, 162 Kb/s | Звук: Японский
Субтитры: Русские
Перевод от: [Cloud], [Spiritovod], [Blaise], [infect3d]

Complete name : [Raizel] Intrigue in the Bakumatsu - 01.mkv
Format : Matroska
Format version : Version 4
File size : 1.53 GiB
Duration : 24 min 5 s
Overall bit rate : 9 104 kb/s
Encoded date : UTC 2022-04-25 09:32:53
Writing application : mkvmerge v56.1.0 ('My Friend') 64-bit
Writing library : libebml v1.4.2 + libmatroska v1.6.4

Video
ID : 1
Format : AVC
Format/Info : Advanced Video Codec
Format profile : High 10@L5
Format settings : CABAC / 16 Ref Frames
Format settings, CABAC : Yes
Format settings, Reference : 16 frames
Codec ID : V_MPEG4/ISO/AVC
Duration : 24 min 5 s
Bit rate : 8 940 kb/s
Width : 1 280 pixels
Height : 720 pixels
Display aspect ratio : 16:9
Frame rate mode : Constant
Frame rate : 23.976 (24000/1001) FPS
Color space : YUV
Chroma subsampling : 4:2:0
Bit depth : 10 bits
Scan type : Progressive
Bits/(Pixel*Frame) : 0.405
Stream size : 1.50 GiB (98%)
Title : Bakumatsu Episode 01
Writing library : x264 core 129 r2230 1cffe9f
Encoding settings : cabac=1 / ref=16 / deblock=1:-3:-3 / analyse=0x3:0x133 / me=umh / subme=10 / psy=1 / psy_rd=1.00:0.00 / mixed_ref=1 / me_range=32 / chroma_me=1 / trellis=2 / 8x8dct=1 / cqm=0 / deadzone=6,6 / fast_pskip=0 / chroma_qp_offset=-2 / threads=12 / lookahead_threads=2 / sliced_threads=0 / nr=0 / decimate=0 / interlaced=0 / bluray_compat=0 / constrained_intra=0 / bframes=16 / b_pyramid=2 / b_adapt=2 / b_bias=0 / direct=3 / weightb=1 / open_gop=0 / weightp=2 / keyint=240 / keyint_min=23 / scenecut=40 / intra_refresh=0 / rc_lookahead=60 / rc=crf / mbtree=1 / crf=18.0 / qcomp=0.80 / qpmin=10 / qpmax=51 / qpstep=4 / ip_ratio=1.10 / aq=1:0.70
Language : English
Default : Yes
Forced : No

Audio
ID : 2
Format : AAC LC
Format/Info : Advanced Audio Codec Low Complexity
Codec ID : A_AAC-2
Duration : 24 min 5 s
Bit rate : 162 kb/s
Channel(s) : 2 channels
Channel layout : L R
Sampling rate : 48.0 kHz
Frame rate : 46.875 FPS (1024 SPF)
Compression mode : Lossy
Delay relative to video : 9 ms
Stream size : 27.9 MiB (2%)
Title : Japanese 2.0
Language : Japanese
Default : No
Forced : No

Menu
00:00:00.000 : OP
00:01:59.033 : Part A
00:12:06.067 : Part B
00:22:01.067 : ED
00:23:31.100 : Preview
1. A Foul Star in the Sky
2. The Earth-Splitting Sword Laughs
3. Ballad of Stone Crane Mansion
4. Anecdote of an Underhanded Scandal
5. Shureiki Unleashed
6. The Closing Performance Burns
7. Soutetsu Moves
8. Satisfactions for Revenge Achieved
9. The Black Cat Cries
10. Ueno Falls
11. The Troupe at a Provisional Stage Again
12. Ryoma`s Message
13. The Head of the Conqueror with a Soul
14. To the North
15. The Secret Sword Resonates
16. Accompaniment of the Four
17. Unnecessary Deliberation
18. Pathetic Destiny
19. Bright Inverted Pentagram
20. There Were Waves
21. Crossing over the Strait
22. An Encounter in the North
23. Hakodate Is Red
24. Irohanihoheto
25. Goryokaku Emerges
26. To Go Towards the Sea



Время раздачи: круглосуточно
[NNMClub.to]_Bakumatsu Kikansetsu Irohanihoheto -- Bor'ba za vlast' vremen bakumatsu.torrent
 Торрент: Золотая раздача  Зарегистрирован
 
Зарегистрируйтесь и скачайте торрент!
183 KB

Примагнититься
 Зарегистрирован:   25 Апр 2022 21:26:10
 Размер:   35.8 GB  (
 Рейтинг:    (Голосов: 4)
 Поблагодарили:   14
 Проверка:   Оформление проверено модератором 26 Апр 2022 09:55:35
Как cкачать  ·  Как раздать  ·  Правильно оформить  ·  Поднять ратио!  
Показать сообщения:   
Начать новую тему   Ответить на тему    Торрент-трекер NNM-Club -> Аниме с субтитрами -> Аниме (HD) Часовой пояс: GMT + 3
Страница 1 из 1