Классический форум-трекер
canvas not supported
Нас вместе: 4 193 784

Reikenzan: Hoshikuzu-tachi no Utage | Spirit Blade Mountain | Гора Священного Меча: Пир звёздной пыли [2016, TV, 12 из 12] HDTVRip 720p raw


 
 
RSS
Начать новую тему   Ответить на тему    Торрент-трекер NNM-Club -> Аниме с субтитрами -> Аниме (HD)
Автор Сообщение
хИНАРИх ®
Uploader 100+
Стаж: 5 лет 4 мес.
Сообщений: 753
Ratio: 15K
Раздал: 231.8 TB
Поблагодарили: 11912
100%
roody.gif
Reikenzan: Hoshikuzu-tachi no Utage
Spirit Blade Mountain
Гора Священного Меча: Пир звёздной пыли

Жанр: Приключения, фэнтези
Тип: TВ-сериал
Количество серий: 12 из 12
Продолжительность: 12 серий по 24 минуты
Период выхода: с 09.01.2016 по 26.03.2016
Производство: Studio Deen
Режиссер: Судзуки Ику
Снято по роману: Once Upon A Time, There Was A Spirit Sword Mountain
Автор оригинала: Го Ван Би Ся
Ссылки: World-Art, Ani-DB, MyAnimeList, Shikimori
Описание: Скорое падение кометы сулит миру великую беду, и чтобы избрать дитя, чья судьба будет связана с падающей кометой, древний клан Священного Меча вновь открывает приём учеников. Главный герой — обладатель «особой души, являющейся лишь раз в тысячу лет», гений с запредельным IQ и редкостный наглец — решает пройти вступительные испытания и таким образом встаёт на путь становления великим мудрецом.
Качество видео: HDTVRip
Видео: AVC, 8 bit, 1280x720, ~1888 Kb/s
Аудио: AAC, 2ch, 48 KHz, 201 Kb/s | Звук: Японский
Субтитры: Русские
Перевод #1 от: [HighFive & Ryzhik]
Перевод #2 от: [Хаттори & Chronoprocyon & KsenyaHearty & sibion]

Complete name : Reikenzan - Hoshikuzu-tachi no Utage - 01.mkv
Format : Matroska
Format version : Version 4
File size : 359 MiB
Duration : 24 min 0 s
Overall bit rate : 2 092 kb/s
Encoded date : UTC 2022-04-25 19:12:05
Writing application : mkvmerge v56.1.0 ('My Friend') 64-bit
Writing library : libebml v1.4.2 + libmatroska v1.6.4

Video
ID : 1
Format : AVC
Format/Info : Advanced Video Codec
Format profile : Main@L4.1
Format settings : CABAC / 4 Ref Frames
Format settings, CABAC : Yes
Format settings, Reference : 4 frames
Codec ID : V_MPEG4/ISO/AVC
Duration : 24 min 0 s
Bit rate : 1 888 kb/s
Width : 1 280 pixels
Height : 720 pixels
Display aspect ratio : 16:9
Frame rate mode : Constant
Frame rate : 23.976 (24000/1001) FPS
Color space : YUV
Chroma subsampling : 4:2:0
Bit depth : 8 bits
Scan type : Progressive
Bits/(Pixel*Frame) : 0.085
Stream size : 324 MiB (90%)
Writing library : x264 core 148 r2638 7599210
Encoding settings : cabac=1 / ref=3 / deblock=1:0:0 / analyse=0x1:0x111 / me=hex / subme=7 / psy=1 / psy_rd=1.00:0.00 / mixed_ref=1 / me_range=16 / chroma_me=1 / trellis=1 / 8x8dct=0 / cqm=0 / deadzone=21,11 / fast_pskip=1 / chroma_qp_offset=-2 / threads=12 / lookahead_threads=2 / sliced_threads=0 / nr=0 / decimate=1 / interlaced=0 / bluray_compat=0 / constrained_intra=0 / bframes=3 / b_pyramid=2 / b_adapt=1 / b_bias=0 / direct=1 / weightb=1 / open_gop=0 / weightp=2 / keyint=240 / keyint_min=1 / scenecut=40 / intra_refresh=0 / rc_lookahead=40 / rc=crf / mbtree=1 / crf=20.0 / qcomp=0.60 / qpmin=0 / qpmax=69 / qpstep=4 / ip_ratio=1.40 / aq=1:1.50
Default : Yes
Forced : No
Color range : Limited
Color primaries : BT.709
Transfer characteristics : BT.709
Matrix coefficients : BT.709

Audio
ID : 2
Format : AAC LC
Format/Info : Advanced Audio Codec Low Complexity
Codec ID : A_AAC-2
Duration : 24 min 0 s
Bit rate : 201 kb/s
Channel(s) : 2 channels
Channel layout : L R
Sampling rate : 48.0 kHz
Frame rate : 46.875 FPS (1024 SPF)
Compression mode : Lossy
Delay relative to video : -83 ms
Stream size : 34.6 MiB (10%)
Language : Japanese
Default : Yes
Forced : No

Text #1
ID : 3
Format : ASS
Codec ID : S_TEXT/ASS
Codec ID/Info : Advanced Sub Station Alpha
Duration : 21 min 26 s
Bit rate : 169 b/s
Count of elements : 333
Compression mode : Lossless
Stream size : 26.6 KiB (0%)
Title : [HighFive & Ryzhik]
Language : Russian
Default : Yes
Forced : No

Text #2
ID : 4
Format : ASS
Codec ID : S_TEXT/ASS
Codec ID/Info : Advanced Sub Station Alpha
Duration : 21 min 24 s
Bit rate : 170 b/s
Count of elements : 347
Compression mode : Lossless
Stream size : 26.7 KiB (0%)
Title : [Хаттори & Chronoprocyon & KsenyaHearty & sibion]
Language : Russian
Default : No
Forced : No
01. The Gathering of Celestials
02. At the End of Utopia
03. Challenge Upon Challenge
04. At the End of Eternity
05. At Wuxiang Peak
06. Wuxiang Jian`gu Style, 98th Edition
07. The Trial at Azure Cloud Peak!
08. The Disappearance of Wang Wu!
09. The Flash of Wuxiang Jian`gu
10. The Girl Who Became a Sacrifice
11. Lingjian Faction vs Shengjing Xianmen!
12. The Calm Before the Storm
Reikenzan: Hoshikuzu-tachi no Utage -- Гора Священного Меча: Пир звёздной пыли
Reikenzan: Eichi e no Shikaku -- Гора Священного меча: Банкет Звездной пыли



Время раздачи: круглосуточно
[NNMClub.to]_Reikenzan TV-1 -- Gora Svyashchennogo Mecha TV-1.torrent
 Торрент: Платиновая раздача  Зарегистрирован
 
Скачать


Примагнититься
 Зарегистрирован:   25 Апр 2022 23:14:40
 Размер:   4.22 GB  (
 Рейтинг:    (Голосов: 5)
 Поблагодарили:   20
 Проверка:   Оформление проверено модератором 26 Апр 2022 09:53:15
Как cкачать  ·  Как раздать  ·  Правильно оформить  ·  Поднять ратио!  
Показать сообщения:   
Начать новую тему   Ответить на тему    Торрент-трекер NNM-Club -> Аниме с субтитрами -> Аниме (HD) Часовой пояс: GMT + 3
Страница 1 из 1