Классический форум-трекер
canvas not supported
Нас вместе: 4 193 066

Желтый дьявол / Der Schut (1964) BDRip [H.264/1080р-LQ] [MVO]


 
 
RSS
Начать новую тему   Ответить на тему    Торрент-трекер NNM-Club -> Классика кино и Старые фильмы до 90-х -> Зарубежная Классика (HD, UHD, UHD-LQ, 3D)
Автор Сообщение
LORDKILL ®
RG Всё лучшее - детям!
Стаж: 5 лет 6 мес.
Сообщений: 1748
Ratio: 326.939
Поблагодарили: 157742
100%
Желтый дьявол / Der Schut (1964) BDRip [H.264/1080р-LQ]
Производство: Германия (ФРГ), Франция, Италия, Югославия / Авала-фильм, CCC Filmkunst GmbH, Criterion Productions, Hoche Productions, Regina-Film, Serena
Жанр: Приключения

Режиссер: Роберт Сьодмак
Актеры: Лекс Баркер, Мари Верзини, Ральф Вольтер, Марианна Хольд, Рик Батталья, Фридрих фон Ледебур, Дитер Борше, Крис Хоуланд, Душан Яницижевич, Ева Рас

Описание фильма:
Желтый дьявол — самый жестокий злодей на Балканах — терроризирует местных жителей. Путешествуя по горам, любитель приключений Кара Бен Немши, его друг Хадши Халиф Омар и английский лорд Линдсей оказываются на территории Желтого дьявола. Наслышанные его о преступлениях, они решают пощекотать себе нервы.



Релиз от: LORDKILL

Продолжительность: 01:55:31
Качество видео: BDRip 1080р
Перевод: Многоголосый закадровый
Субтитры: Отсутствуют

Видео: AVC/H.264, 1920x820, ~4583 Kbps
Аудио: AC3, 2 ch, 192 Kbps - Русский
General
Unique ID : 336951417956810927715829094342525840885 (0xFD7E7B895BCE1CAA4C60DD391F35EDF5)
Complete name : E:\КИНО\ДЛЯ РАЗДАЧ\Желтый дьявол (1964).mkv
Format : Matroska
Format version : Version 4
File size : 3.85 GiB
Duration : 1 h 55 min
Overall bit rate : 4 777 kb/s
Movie name : Желтый дьявол / Der Schut (1964) - #LORDKILL#
Encoded date : UTC 2022-04-27 17:15:02
Writing application : mkvmerge v32.0.0 ('Astral Progressions') 64-bit
Writing library : libebml v1.3.7 + libmatroska v1.5.0

Video
ID : 1
Format : AVC
Format/Info : Advanced Video Codec
Format profile : High@L4.1
Format settings : CABAC / 5 Ref Frames
Format settings, CABAC : Yes
Format settings, Reference : 5 frames
Codec ID : V_MPEG4/ISO/AVC
Duration : 1 h 55 min
Bit rate : 4 583 kb/s
Width : 1 920 pixels
Height : 820 pixels
Display aspect ratio : 2.35:1
Frame rate mode : Constant
Frame rate : 23.976 (24000/1001) FPS
Color space : YUV
Chroma subsampling : 4:2:0
Bit depth : 8 bits
Scan type : Progressive
Bits/(Pixel*Frame) : 0.121
Stream size : 3.70 GiB (96%)
Writing library : x264 core 164 r3080 8a43cc1
Encoding settings : cabac=1 / ref=5 / deblock=1:-2:-2 / analyse=0x3:0x133 / me=umh / subme=10 / psy=1 / psy_rd=1.00:0.15 / mixed_ref=1 / me_range=32 / chroma_me=1 / trellis=2 / 8x8dct=1 / cqm=0 / deadzone=21,11 / fast_pskip=0 / chroma_qp_offset=-3 / threads=24 / lookahead_threads=6 / sliced_threads=0 / nr=0 / decimate=1 / interlaced=0 / bluray_compat=0 / constrained_intra=0 / bframes=10 / b_pyramid=2 / b_adapt=2 / b_bias=0 / direct=3 / weightb=1 / open_gop=0 / weightp=2 / keyint=250 / keyint_min=23 / scenecut=40 / intra_refresh=0 / rc_lookahead=60 / rc=crf / mbtree=0 / crf=21.5 / qcomp=0.60 / qpmin=0 / qpmax=69 / qpstep=4 / vbv_maxrate=62500 / vbv_bufsize=78125 / crf_max=0.0 / nal_hrd=none / filler=0 / ip_ratio=1.40 / pb_ratio=1.30 / aq=1:1.00
Default : Yes
Forced : Yes
Color range : Limited
Matrix coefficients : BT.709

Audio
ID : 2
Format : AC-3
Format/Info : Audio Coding 3
Commercial name : Dolby Digital
Format settings : Dolby Surround
Codec ID : A_AC3
Duration : 1 h 55 min
Bit rate mode : Constant
Bit rate : 192 kb/s
Channel(s) : 2 channels
Channel layout : L R
Sampling rate : 48.0 kHz
Frame rate : 31.250 FPS (1536 SPF)
Compression mode : Lossy
Stream size : 159 MiB (4%)
Title : MVO
Language : Russian
Service kind : Complete Main
Default : Yes
Forced : No
Скриншоты:


Все одноименные релизы в Клубе

Время раздачи: 24/7 (до появления первых 10 скачавших)
[NNMClub.to]_ZHeltyiy d'yavol (1964).mkv.torrent
 Торрент: Платиновая раздача  Зарегистрирован
 
Скачать


Примагнититься
 Зарегистрирован:   27 Апр 2022 20:38:20
 Размер:   3.85 GB  (
 Рейтинг:   4.8 (Голосов: 18)
 Поблагодарили:   95
 Проверка:   Оформление проверено модератором 27 Апр 2022 21:05:41
Как cкачать  ·  Как раздать  ·  Правильно оформить  ·  Поднять ратио!  
Rezident 09
Стаж: 2 года
Сообщений: 26
Ratio: 27.389
100%
Откуда: Северный Кавказ
ussr.gif
Первый фильмы из трилогии "Восточного цикла "по произведениям Карла Мая, о приключениях Кара Бен Немши и его друга Хадши Халифа Омара. Огромнейшее спасибо!!!

_________________
Тот, кто хочет сделать дело - ищет средство, тот, кто не хочет - ищет причину.
IGS_63
Стаж: 11 лет 8 мес.
Сообщений: 401
Ratio: 6.156
98.77%
ussr.gif
Это типа про "индейцев" только на Балканах?)

_________________
LONG LIVE ROCK'N'ROLL !
alexey3312
Стаж: 11 лет 4 мес.
Сообщений: 833
Ratio: 10.722
Раздал: 13.4 TB
100%
ussr.gif
Класс!

_________________
Металлисты - это самый развитой и передовой класс, и никто не может отрицать, что это и есть передовой отряд всего пролетариата. В.И. Ленин
Ivan0ff
Стаж: 13 лет 3 мес.
Сообщений: 184
Ratio: 54.137
100%
IGS_63 писал(а): Перейти к сообщению
Это типа про "индейцев" только на Балканах?)

А в чем разница? Гойко Митич вполне аутентичный балканский индеец. Удивлен, что его нет в этом фильме.
Показать сообщения:   
Начать новую тему   Ответить на тему    Торрент-трекер NNM-Club -> Классика кино и Старые фильмы до 90-х -> Зарубежная Классика (HD, UHD, UHD-LQ, 3D) Часовой пояс: GMT + 3
Страница 1 из 1