Классический форум-трекер
canvas not supported
Нас вместе: 4 195 935

Первая передача на НТВ. Автомобильная передача (29.05.2022) SATRip


 
 
RSS
Начать новую тему   Ответить на тему    Торрент-трекер NNM-Club -> Документалистика и Телепередачи -> За рулем
Автор Сообщение
Катюша ®
Мне бы в небо!
Стаж: 10 лет 3 мес.
Сообщений: 1059
Ratio: 219.665
Поблагодарили: 91833
100%
witch.png
Первая передача на НТВ. Автомобильная передача (29.05.2022) SATRip

Телекомпания: НТВ
Жанр: Автопередача

Ведущий: Алексей Куличков

Описание:
- Побочный эффект безобидного лекарства: неужели водителям теперь вообще не ходить в аптеку?
- Скромное очарование «автохрущевки»: источник новых трендов или неуклюжий автопенсионер?
- Ремонт по гарантии надо заслужить: как не подать на дилера в суд и сэкономить деньги.

Релиз от: -=FOX=-
Продолжительность: 00:24:08
Качество видео: SATRip

Видео: AVC, 720x400, 1645 Kbps
Аудио: AAC, 2 ch, 128 Kbps

Общее
Полное имя : Pervaya.peredacha.(2022.05.29).SATRip.mp4
Формат : MPEG-4
Профиль формата : Base Media
Идентификатор кодека : isom (isom/iso2/avc1/mp41)
Размер файла : 307 Мбайт
Продолжительность : 24 м. 8 с.
Режим общего битрейта : Постоянный
Общий поток : 1 778 Кбит/сек
Программа кодирования : XviD4PSP 8.0.59
encoding_info : MPEGTS > MP4 Apple 1080p / H264 > H264 NVENC CBR 1645kbps HQ / AAC-HEv2 > AAC CBR 128kbps LC / ASS > HARDSUB

Видео
Идентификатор : 1
Формат : AVC
Формат/Информация : Advanced Video Codec
Профиль формата : Main@L3
Настройки формата : CABAC / 2 Ref Frames
Параметр CABAC формата : Да
Параметр RefFrames формата : 2 кадра
Идентификатор кодека : avc1
Идентификатор кодека/Информация : Advanced Video Coding
Продолжительность : 24 м. 8 с.
Вид битрейта : Постоянный
Битрейт : 1 645 Кбит/сек
Ширина : 720 пикселей
Высота : 400 пикселей
Соотношение сторон : 16:9
Режим частоты кадров : Постоянный
Частота кадров : 25,000 кадров/сек
Цветовое пространство : YUV
Субдискретизация насыщенности : 4:2:0
Битовая глубина : 8 бит
Тип развёртки : Прогрессивная
Бит/(Пиксели*Кадры) : 0.228
Размер потока : 284 Мбайт (93%)
Codec configuration box : avcC

Аудио
Идентификатор : 2
Формат : AAC LC
Формат/Информация : Advanced Audio Codec Low Complexity
Идентификатор кодека : mp4a-40-2
Продолжительность : 24 м. 8 с.
Вид битрейта : Постоянный
Битрейт : 128 Кбит/сек
Каналы : 2 канала
Channel layout : L R
Частота : 48,0 КГц
Частота кадров : 46,875 кадров/сек (1024 SPF)
Метод сжатия : С потерями
Размер потока : 22,1 Мбайт (7%)
Default : Да
Alternate group : 1

Скриншоты:



Все одноименные релизы в Клубе
Время раздачи: 24/7. До первых 5 скачавших.
[NNMClub.to]_Pervaya.peredacha.(2022.05.29).SATRip.mp4.torrent
 Торрент:   Зарегистрирован
 
Зарегистрируйтесь и скачайте торрент!
12.3 KB
Free Leech
Примагнититься
 Зарегистрирован:   29 Май 2022 11:42:33
 Размер:   307 MB  (
 Рейтинг:   5 (Голосов: 10)
 Поблагодарили:   45
 Проверка:   Оформление проверено модератором 29 Май 2022 11:43:02
Как cкачать  ·  Как раздать  ·  Правильно оформить  ·  Поднять ратио!  
Показать сообщения:   
Начать новую тему   Ответить на тему    Торрент-трекер NNM-Club -> Документалистика и Телепередачи -> За рулем Часовой пояс: GMT + 3
Страница 1 из 1