Классический форум-трекер
canvas not supported
Нас вместе: 4 196 333

Spriggan | Спригган [2022, ONA, 6 из 6] WEBRip 1080p raw


 
 
RSS
Начать новую тему   Ответить на тему    Торрент-трекер NNM-Club -> Аниме с субтитрами -> Аниме (FullHD)
Автор Сообщение
хИНАРИх ®
Uploader 100+
Стаж: 5 лет 5 мес.
Сообщений: 827
Ratio: 16K
Раздал: 238.9 TB
Поблагодарили: 12230
100%
roody.gif
Spriggan | Спригган
Жанр: Приключения, фантастика, боевик
Тип: OVA
Количество серий: 6 из 6
Продолжительность: 6 серий по 45 минут
Период выхода: 18.06.2022
Производство: David Production
Режиссер: Кобаяси Хироси
Снято по ранобэ: Спригган
Автор оригинала: Такасигэ Хироси
Ссылки: World-Art, Ani-DB, MyAnimeList, Shikimori
Описание: В Турции у горы Арарат секретная организация «Аркам» обнаруживает объект, предположительно представляющий собой Ноев Ковчег. Разумеется, такая находка привлекает к себе внимание. Ковчегом не прочь завладеть и одна из подпольных организаций Пентагона США, и на пути у них стоит лишь спецотряд «Аркам», известный как «Спригган».
Японский агент «Сприггана» Ю Оминаэ объединяется с французским агентом Жаном Жакмондо, чтобы противостоять американскому отряду под предводительством полковника МакДугалла — мальчика, который после генетического эксперимента приобрёл сверхъестественные способности. «Сприггану» нужно действовать слаженно и эффективно, дабы не дать МакДугаллу использовать Ковчег для достижения собственных целей.
Источник: [NanDesuKa]
Качество видео: WEBRip
Видео: AVC, 8 bit, 1920x1080, ~2578 Kb/s
Аудио #1: E-AC-3, 6ch, 48 KHz, 640 Kb/s | Звук: Японский
Аудио #2: E-AC-3, 6ch, 48 KHz, 640 Kb/s | Звук: Английский
Субтитры: Русские, Английские и другие
Перевод от: [Netflix]

Complete name : Spriggan (2022) - 01 [1080p].mkv
Format : Matroska
Format version : Version 4
File size : 1.18 GiB
Duration : 43 min 43 s
Overall bit rate mode : Variable
Overall bit rate : 3 865 kb/s
Encoded date : UTC 2022-06-18 07:34:04
Writing application : mkvmerge v65.0.0 ('Too Much') 64-bit
Writing library : libebml v1.4.2 + libmatroska v1.6.4

Video
ID : 1
Format : AVC
Format/Info : Advanced Video Codec
Format profile : Main@L4
Format settings : CABAC / 3 Ref Frames
Format settings, CABAC : Yes
Format settings, Reference : 3 frames
Codec ID : V_MPEG4/ISO/AVC
Duration : 43 min 42 s
Bit rate mode : Variable
Bit rate : 2 578 kb/s
Nominal bit rate : 3 040 kb/s
Maximum bit rate : 6 030 kb/s
Width : 1 920 pixels
Height : 1 080 pixels
Display aspect ratio : 16:9
Frame rate mode : Constant
Frame rate : 23.976 (24000/1001) FPS
Color space : YUV
Chroma subsampling : 4:2:0
Bit depth : 8 bits
Scan type : Progressive
Bits/(Pixel*Frame) : 0.052
Stream size : 806 MiB (67%)
Writing library : x264 core 148 r2727 7d026e8
Encoding settings : cabac=1 / ref=3 / deblock=1:0:0 / analyse=0x1:0x111 / me=umh / subme=10 / psy=1 / psy_rd=1.00:0.00 / mixed_ref=1 / me_range=24 / chroma_me=1 / trellis=2 / 8x8dct=0 / cqm=0 / deadzone=21,11 / fast_pskip=1 / chroma_qp_offset=-2 / threads=8 / lookahead_threads=1 / sliced_threads=0 / nr=0 / decimate=1 / interlaced=0 / bluray_compat=0 / stitchable=1 / constrained_intra=0 / bframes=2 / b_pyramid=0 / b_adapt=2 / b_bias=0 / direct=3 / weightb=1 / open_gop=0 / weightp=2 / keyint=250 / keyint_min=23 / scenecut=0 / intra_refresh=0 / rc_lookahead=48 / rc=2pass / mbtree=1 / bitrate=3040 / ratetol=1.0 / qcomp=0.50 / qpmin=6 / qpmax=51 / qpstep=4 / cplxblur=20.0 / qblur=0.5 / vbv_maxrate=6030 / vbv_bufsize=8040 / nal_hrd=vbr / filler=0 / ip_ratio=1.40 / aq=1:1.00
Default : Yes
Forced : No

Audio #1
ID : 2
Format : E-AC-3
Format/Info : Enhanced AC-3
Commercial name : Dolby Digital Plus
Codec ID : A_EAC3
Duration : 43 min 43 s
Bit rate mode : Constant
Bit rate : 640 kb/s
Channel(s) : 6 channels
Channel layout : L R C LFE Ls Rs
Sampling rate : 48.0 kHz
Frame rate : 31.250 FPS (1536 SPF)
Compression mode : Lossy
Stream size : 200 MiB (17%)
Title : Japanese
Language : Japanese
Service kind : Complete Main
Default : Yes
Forced : No

Audio #2
ID : 3
Format : E-AC-3
Format/Info : Enhanced AC-3
Commercial name : Dolby Digital Plus
Codec ID : A_EAC3
Duration : 43 min 43 s
Bit rate mode : Constant
Bit rate : 640 kb/s
Channel(s) : 6 channels
Channel layout : L R C LFE Ls Rs
Sampling rate : 48.0 kHz
Frame rate : 31.250 FPS (1536 SPF)
Compression mode : Lossy
Stream size : 200 MiB (17%)
Title : English
Language : English
Service kind : Complete Main
Default : No
Forced : No

Text #1
ID : 4
Format : UTF-8
Codec ID : S_TEXT/UTF8
Codec ID/Info : UTF-8 Plain Text
Duration : 42 min 34 s
Bit rate : 101 b/s
Count of elements : 708
Stream size : 31.7 KiB (0%)
Title : Japanese (SDH)
Language : Japanese
Default : No
Forced : No

Text #2
ID : 5
Format : UTF-8
Codec ID : S_TEXT/UTF8
Codec ID/Info : UTF-8 Plain Text
Duration : 33 min 54 s
Bit rate : 0 b/s
Count of elements : 5
Stream size : 162 Bytes (0%)
Title : English (Forced)
Language : English
Default : No
Forced : Yes

Text #3
ID : 6
Format : UTF-8
Codec ID : S_TEXT/UTF8
Codec ID/Info : UTF-8 Plain Text
Duration : 42 min 43 s
Bit rate : 97 b/s
Count of elements : 529
Stream size : 30.6 KiB (0%)
Title : Arabic
Language : Arabic
Default : No
Forced : No

Text #4
ID : 7
Format : UTF-8
Codec ID : S_TEXT/UTF8
Codec ID/Info : UTF-8 Plain Text
Duration : 42 min 43 s
Bit rate : 60 b/s
Count of elements : 528
Stream size : 18.8 KiB (0%)
Title : Czech
Language : Czech
Default : No
Forced : No

Text #5
ID : 8
Format : UTF-8
Codec ID : S_TEXT/UTF8
Codec ID/Info : UTF-8 Plain Text
Duration : 42 min 43 s
Bit rate : 60 b/s
Count of elements : 528
Stream size : 18.9 KiB (0%)
Title : Danish
Language : Danish
Default : No
Forced : No

Text #6
ID : 9
Format : UTF-8
Codec ID : S_TEXT/UTF8
Codec ID/Info : UTF-8 Plain Text
Duration : 42 min 43 s
Bit rate : 65 b/s
Count of elements : 528
Stream size : 20.6 KiB (0%)
Title : German
Language : German
Default : No
Forced : No

Text #7
ID : 10
Format : UTF-8
Codec ID : S_TEXT/UTF8
Codec ID/Info : UTF-8 Plain Text
Duration : 42 min 43 s
Bit rate : 109 b/s
Count of elements : 529
Stream size : 34.4 KiB (0%)
Title : Greek
Language : Greek
Default : No
Forced : No

Text #8
ID : 11
Format : UTF-8
Codec ID : S_TEXT/UTF8
Codec ID/Info : UTF-8 Plain Text
Duration : 41 min 22 s
Bit rate : 78 b/s
Count of elements : 603
Stream size : 23.9 KiB (0%)
Title : English
Language : English
Default : Yes
Forced : No

Text #9
ID : 12
Format : UTF-8
Codec ID : S_TEXT/UTF8
Codec ID/Info : UTF-8 Plain Text
Duration : 42 min 37 s
Bit rate : 64 b/s
Count of elements : 524
Stream size : 20.0 KiB (0%)
Title : English
Language : English
Default : Yes
Forced : No

Text #10
ID : 13
Format : UTF-8
Codec ID : S_TEXT/UTF8
Codec ID/Info : UTF-8 Plain Text
Duration : 41 min 31 s
Bit rate : 92 b/s
Count of elements : 802
Stream size : 28.0 KiB (0%)
Title : English (SDH)
Language : English
Default : Yes
Forced : No

Text #11
ID : 14
Format : UTF-8
Codec ID : S_TEXT/UTF8
Codec ID/Info : UTF-8 Plain Text
Duration : 42 min 43 s
Bit rate : 68 b/s
Count of elements : 543
Stream size : 21.5 KiB (0%)
Title : Spanish (Latin America)
Language : Spanish
Default : No
Forced : No

Text #12
ID : 15
Format : UTF-8
Codec ID : S_TEXT/UTF8
Codec ID/Info : UTF-8 Plain Text
Duration : 42 min 43 s
Bit rate : 62 b/s
Count of elements : 527
Stream size : 19.7 KiB (0%)
Title : Spanish (Spain)
Language : Spanish
Default : No
Forced : No

Text #13
ID : 16
Format : UTF-8
Codec ID : S_TEXT/UTF8
Codec ID/Info : UTF-8 Plain Text
Duration : 42 min 43 s
Bit rate : 63 b/s
Count of elements : 528
Stream size : 19.8 KiB (0%)
Title : Finnish
Language : Finnish
Default : No
Forced : No

Text #14
ID : 17
Format : UTF-8
Codec ID : S_TEXT/UTF8
Codec ID/Info : UTF-8 Plain Text
Duration : 42 min 43 s
Bit rate : 68 b/s
Count of elements : 538
Stream size : 21.6 KiB (0%)
Title : French
Language : French
Default : No
Forced : No

Text #15
ID : 18
Format : UTF-8
Codec ID : S_TEXT/UTF8
Codec ID/Info : UTF-8 Plain Text
Duration : 42 min 43 s
Bit rate : 90 b/s
Count of elements : 529
Stream size : 28.2 KiB (0%)
Title : Hebrew
Language : Hebrew
Default : No
Forced : No

Text #16
ID : 19
Format : UTF-8
Codec ID : S_TEXT/UTF8
Codec ID/Info : UTF-8 Plain Text
Duration : 42 min 43 s
Bit rate : 56 b/s
Count of elements : 528
Stream size : 17.6 KiB (0%)
Title : Croatian
Language : Croatian
Default : No
Forced : No

Text #17
ID : 20
Format : UTF-8
Codec ID : S_TEXT/UTF8
Codec ID/Info : UTF-8 Plain Text
Duration : 42 min 43 s
Bit rate : 63 b/s
Count of elements : 528
Stream size : 19.9 KiB (0%)
Title : Hungarian
Language : Hungarian
Default : No
Forced : No

Text #18
ID : 21
Format : UTF-8
Codec ID : S_TEXT/UTF8
Codec ID/Info : UTF-8 Plain Text
Duration : 42 min 43 s
Bit rate : 65 b/s
Count of elements : 528
Stream size : 20.4 KiB (0%)
Title : Indonesian
Language : Indonesian
Default : No
Forced : No

Text #19
ID : 22
Format : UTF-8
Codec ID : S_TEXT/UTF8
Codec ID/Info : UTF-8 Plain Text
Duration : 42 min 43 s
Bit rate : 65 b/s
Count of elements : 528
Stream size : 20.6 KiB (0%)
Title : Italian
Language : Italian
Default : No
Forced : No

Text #20
ID : 23
Format : UTF-8
Codec ID : S_TEXT/UTF8
Codec ID/Info : UTF-8 Plain Text
Duration : 42 min 43 s
Bit rate : 75 b/s
Count of elements : 542
Stream size : 23.7 KiB (0%)
Title : Korean
Language : Korean
Default : No
Forced : No

Text #21
ID : 24
Format : UTF-8
Codec ID : S_TEXT/UTF8
Codec ID/Info : UTF-8 Plain Text
Duration : 42 min 43 s
Bit rate : 64 b/s
Count of elements : 528
Stream size : 20.2 KiB (0%)
Title : Malay
Language : Malay
Default : No
Forced : No

Text #22
ID : 25
Format : UTF-8
Codec ID : S_TEXT/UTF8
Codec ID/Info : UTF-8 Plain Text
Duration : 42 min 43 s
Bit rate : 61 b/s
Count of elements : 528
Stream size : 19.2 KiB (0%)
Title : Norwegian Bokmål
Language : Norwegian Bokmal
Default : No
Forced : No

Text #23
ID : 26
Format : UTF-8
Codec ID : S_TEXT/UTF8
Codec ID/Info : UTF-8 Plain Text
Duration : 42 min 43 s
Bit rate : 60 b/s
Count of elements : 528
Stream size : 19.0 KiB (0%)
Title : Dutch
Language : Dutch
Default : No
Forced : No

Text #24
ID : 27
Format : UTF-8
Codec ID : S_TEXT/UTF8
Codec ID/Info : UTF-8 Plain Text
Duration : 42 min 43 s
Bit rate : 60 b/s
Count of elements : 530
Stream size : 18.8 KiB (0%)
Title : Polish
Language : Polish
Default : No
Forced : No

Text #25
ID : 28
Format : UTF-8
Codec ID : S_TEXT/UTF8
Codec ID/Info : UTF-8 Plain Text
Duration : 42 min 43 s
Bit rate : 63 b/s
Count of elements : 527
Stream size : 19.7 KiB (0%)
Title : Portuguese (Brazil)
Language : Portuguese
Default : No
Forced : No

Text #26
ID : 29
Format : UTF-8
Codec ID : S_TEXT/UTF8
Codec ID/Info : UTF-8 Plain Text
Duration : 42 min 43 s
Bit rate : 65 b/s
Count of elements : 528
Stream size : 20.4 KiB (0%)
Title : Portuguese (Portugal)
Language : Portuguese
Default : No
Forced : No

Text #27
ID : 30
Format : UTF-8
Codec ID : S_TEXT/UTF8
Codec ID/Info : UTF-8 Plain Text
Duration : 42 min 43 s
Bit rate : 68 b/s
Count of elements : 528
Stream size : 21.3 KiB (0%)
Title : Romanian
Language : Romanian
Default : No
Forced : No

Text #28
ID : 31
Format : UTF-8
Codec ID : S_TEXT/UTF8
Codec ID/Info : UTF-8 Plain Text
Duration : 42 min 43 s
Bit rate : 112 b/s
Count of elements : 528
Stream size : 35.1 KiB (0%)
Title : Russian
Language : Russian
Default : No
Forced : No

Text #29
ID : 32
Format : UTF-8
Codec ID : S_TEXT/UTF8
Codec ID/Info : UTF-8 Plain Text
Duration : 42 min 43 s
Bit rate : 61 b/s
Count of elements : 528
Stream size : 19.2 KiB (0%)
Title : Swedish
Language : Swedish
Default : No
Forced : No

Text #30
ID : 33
Format : UTF-8
Codec ID : S_TEXT/UTF8
Codec ID/Info : UTF-8 Plain Text
Duration : 42 min 43 s
Bit rate : 169 b/s
Count of elements : 534
Stream size : 53.1 KiB (0%)
Title : Thai
Language : Thai
Default : No
Forced : No

Text #31
ID : 34
Format : UTF-8
Codec ID : S_TEXT/UTF8
Codec ID/Info : UTF-8 Plain Text
Duration : 42 min 43 s
Bit rate : 63 b/s
Count of elements : 529
Stream size : 19.7 KiB (0%)
Title : Turkish
Language : Turkish
Default : No
Forced : No

Text #32
ID : 35
Format : UTF-8
Codec ID : S_TEXT/UTF8
Codec ID/Info : UTF-8 Plain Text
Duration : 42 min 43 s
Bit rate : 95 b/s
Count of elements : 529
Stream size : 30.0 KiB (0%)
Title : Ukrainian
Language : Ukrainian
Default : No
Forced : No

Text #33
ID : 36
Format : UTF-8
Codec ID : S_TEXT/UTF8
Codec ID/Info : UTF-8 Plain Text
Duration : 42 min 43 s
Bit rate : 92 b/s
Count of elements : 531
Stream size : 28.9 KiB (0%)
Title : Vietnamese
Language : Vietnamese
Default : No
Forced : No

Text #34
ID : 37
Format : UTF-8
Codec ID : S_TEXT/UTF8
Codec ID/Info : UTF-8 Plain Text
Duration : 42 min 43 s
Bit rate : 70 b/s
Count of elements : 529
Stream size : 22.0 KiB (0%)
Title : Chinese (Simplified)
Language : Chinese
Default : No
Forced : No

Text #35
ID : 38
Format : UTF-8
Codec ID : S_TEXT/UTF8
Codec ID/Info : UTF-8 Plain Text
Duration : 42 min 43 s
Bit rate : 71 b/s
Count of elements : 529
Stream size : 22.3 KiB (0%)
Title : Chinese (Traditional)
Language : Chinese
Default : No
Forced : No

Menu
00:00:00.000 : en:Part 01
00:41:41.450 : en:Credits
01. Огненный змей
02. Ноев Ковчег
03. Лес, откуда нет возврата
04. Берсерк
05. Хрустальный череп
06. Забытое Королевство



Время раздачи: круглосуточно
[NNMClub.to]_Spriggan (2022).torrent
 Торрент:   Зарегистрирован
 
Зарегистрируйтесь и скачайте торрент!
35.6 KB
Free Leech
Примагнититься
 Зарегистрирован:   19 Июн 2022 00:27:00
 Размер:   7.01 GB  (
 Рейтинг:    (Голосов: 3)
 Поблагодарили:   30
 Проверка:   Оформление проверено модератором 19 Июн 2022 13:55:43
Как cкачать  ·  Как раздать  ·  Правильно оформить  ·  Поднять ратио!  
IHSEMURAI
Стаж: 1 год 9 мес.
Сообщений: 20
Ratio: 3.502
0.29%
poland.gif
В Турции у горы Арарат секретная организация «Аркам» обнаруживает объект, предположительно представляющий собой Ноев Ковчег.
Вот это прямо ппц))
Показать сообщения:   
Начать новую тему   Ответить на тему    Торрент-трекер NNM-Club -> Аниме с субтитрами -> Аниме (FullHD) Часовой пояс: GMT + 3
Страница 1 из 1