Классический форум-трекер
canvas not supported
Нас вместе: 4 232 299

VA - Машина Времени (Трибьют) - Машинопись 2CD (2009) [FLAC|Lossless]<Rock>


 
 
RSS
Начать новую тему   Ответить на тему    Торрент-трекер NNM-Club -> Rock, Alternative, Punk, Metal -> Русский Рок (Lossless)
Автор Сообщение
Shuran80 ®
Свободный релизер
 
Стаж: 15 лет
Сообщений: 3351
Ratio: 1102.143
Раздал: 87.06 TB
Поблагодарили: 195376
100%
Откуда: Ленинград
ussr.gif
VA - Машина Времени (Трибьют) - Машинопись 2CD (2009)

Год: 2009
Жанр: Rock
Продолжительность: 02:37:10

Кодек: FLAC
Битрейт: Lossless
Тип рипа: tracks +.cue

Треклист:
01. Алиса - Черно-белый цвет
02. Ундервуд - Старый корабль
03. Александр Градский - Посвящение Машине Времени
04. Аквариум - Вверх
05. Муха - Ночь
06. Чиж & Co. - Эти реки никуда не текут
07. Жанна Агузарова - Синяя птица
08. Конец Фильма - Она идет по жизни смеясь
09. Максим Леонидов - Кого ты хотел удивить?
10. Пилот - Костер
11. Браво - Наш дом
12. Воскресение - Флаг над замком
13. Моральный Кодекс - Ты или я (Солнечный остров)
14. Цветы - Я сюда еще вернусь
15. Евгений Гришковец и Бигуди - Знаю только я
16. Uma2rmaH - Свеча
17. Николай Фоменко и Бобры - Проводница
18. Валерий Сюткин - Однажды мир прогнется под нас
19. Високосный Год - Музыка под снегом
20. ЧайФ - Шанхай-Блюз
Прoдoлжительнoсть: 01:19:36
Код: выделить все
Exact Audio Copy V0.99 prebeta 5 from 4. May 2009

EAC extraction logfile from 12. December 2009, 4:54

Various / Машинопись - CD #1

Used drive  : Optiarc DVD RW AD-7530B   Adapter: 0  ID: 0

Read mode               : Secure
Utilize accurate stream : Yes
Defeat audio cache      : Yes
Make use of C2 pointers : No

Read offset correction                      : 6
Overread into Lead-In and Lead-Out          : No
Fill up missing offset samples with silence : Yes
Delete leading and trailing silent blocks   : No
Null samples used in CRC calculations       : Yes
Used interface                              : Native Win32 interface for Win NT & 2000
Gap handling                                : Appended to previous track

Used output format              : User Defined Encoder
Selected bitrate                : 128 kBit/s
Quality                         : High
Add ID3 tag                     : No
Command line compressor         : C:\Program Files\Exact Audio Copy\Flac\flac.exe
Additional command line options : -V -8 -T "artist=%a" -T "title=%t" -T "album=%g" -T "date=%y" -T "tracknumber=%n" -T "genre=%m" %s

TOC of the extracted CD

     Track |   Start  |  Length  | Start sector | End sector
    ---------------------------------------------------------
        1  |  0:00.00 |  3:40.00 |         0    |    16499
        2  |  3:40.00 |  3:41.19 |     16500    |    33093
        3  |  7:21.19 |  6:15.37 |     33094    |    61255
        4  | 13:36.56 |  5:19.51 |     61256    |    85231
        5  | 18:56.32 |  3:39.22 |     85232    |   101678
        6  | 22:35.54 |  4:11.47 |    101679    |   120550
        7  | 26:47.26 |  2:56.15 |    120551    |   133765
        8  | 29:43.41 |  2:43.30 |    133766    |   146020
        9  | 32:26.71 |  4:14.11 |    146021    |   165081
       10  | 36:41.07 |  4:35.74 |    165082    |   185780
       11  | 41:17.06 |  3:36.18 |    185781    |   201998
       12  | 44:53.24 |  3:15.69 |    201999    |   216692
       13  | 48:09.18 |  4:23.00 |    216693    |   236417
       14  | 52:32.18 |  3:55.07 |    236418    |   254049
       15  | 56:27.25 |  5:16.13 |    254050    |   277762
       16  | 61:43.38 |  3:46.31 |    277763    |   294743
       17  | 65:29.69 |  2:50.40 |    294744    |   307533
       18  | 68:20.34 |  2:54.01 |    307534    |   320584
       19  | 71:14.35 |  4:54.30 |    320585    |   342664
       20  | 76:08.65 |  3:40.69 |    342665    |   359233

Track  1

     Filename D:\Музыка\EAC\Машинопись - CD #1 - 2009\01 - Черно-белый цвет.wav

     Pre-gap length  0:00:02.00

     Peak level 99.1 %
     Track quality 100.0 %
     Test CRC 25E108F5
     Copy CRC 25E108F5
     Copy OK

Track  2

     Filename D:\Музыка\EAC\Машинопись - CD #1 - 2009\02 - Старый корабль.wav

     Peak level 95.8 %
     Track quality 100.0 %
     Test CRC 3370931F
     Copy CRC 3370931F
     Copy OK

Track  3

     Filename D:\Музыка\EAC\Машинопись - CD #1 - 2009\03 - Посвящение Машине Времени.wav

     Pre-gap length  0:00:02.00

     Peak level 96.6 %
     Track quality 100.0 %
     Test CRC A3D7ACD0
     Copy CRC A3D7ACD0
     Copy OK

Track  4

     Filename D:\Музыка\EAC\Машинопись - CD #1 - 2009\04 - Вверх.wav

     Peak level 96.4 %
     Track quality 100.0 %
     Test CRC 127D26B0
     Copy CRC 127D26B0
     Copy OK

Track  5

     Filename D:\Музыка\EAC\Машинопись - CD #1 - 2009\05 - Ночь.wav

     Peak level 96.9 %
     Track quality 100.0 %
     Test CRC F593709B
     Copy CRC F593709B
     Copy OK

Track  6

     Filename D:\Музыка\EAC\Машинопись - CD #1 - 2009\06 - Эти реки никуда не текут.wav

     Pre-gap length  0:00:02.00

     Peak level 96.9 %
     Track quality 100.0 %
     Test CRC 25D949F3
     Copy CRC 25D949F3
     Copy OK

Track  7

     Filename D:\Музыка\EAC\Машинопись - CD #1 - 2009\07 - Синяя птица.wav

     Pre-gap length  0:00:01.00

     Peak level 97.7 %
     Track quality 100.0 %
     Test CRC B771F230
     Copy CRC B771F230
     Copy OK

Track  8

     Filename D:\Музыка\EAC\Машинопись - CD #1 - 2009\08 - Она идет по жизни смеясь.wav

     Pre-gap length  0:00:02.00

     Peak level 97.7 %
     Track quality 100.0 %
     Test CRC 6E64EF13
     Copy CRC 6E64EF13
     Copy OK

Track  9

     Filename D:\Музыка\EAC\Машинопись - CD #1 - 2009\09 - Кого ты хотел удивить .wav

     Pre-gap length  0:00:01.00

     Peak level 96.0 %
     Track quality 100.0 %
     Test CRC 3547D7BE
     Copy CRC 3547D7BE
     Copy OK

Track 10

     Filename D:\Музыка\EAC\Машинопись - CD #1 - 2009\10 - Костер.wav

     Pre-gap length  0:00:01.00

     Peak level 97.0 %
     Track quality 100.0 %
     Test CRC 03D6AA3C
     Copy CRC 03D6AA3C
     Copy OK

Track 11

     Filename D:\Музыка\EAC\Машинопись - CD #1 - 2009\11 - Наш дом.wav

     Pre-gap length  0:00:02.00

     Peak level 96.9 %
     Track quality 100.0 %
     Test CRC 45C20524
     Copy CRC 45C20524
     Copy OK

Track 12

     Filename D:\Музыка\EAC\Машинопись - CD #1 - 2009\12 - Флаг над замком.wav

     Pre-gap length  0:00:02.00

     Peak level 97.9 %
     Track quality 99.9 %
     Test CRC 9B5B6A99
     Copy CRC 9B5B6A99
     Copy OK

Track 13

     Filename D:\Музыка\EAC\Машинопись - CD #1 - 2009\13 - Ты или я (Солнечный остров).wav

     Pre-gap length  0:00:02.00

     Peak level 97.1 %
     Track quality 99.9 %
     Test CRC 65CBE66A
     Copy CRC 65CBE66A
     Copy OK

Track 14

     Filename D:\Музыка\EAC\Машинопись - CD #1 - 2009\14 - Я сюда еще вернусь.wav

     Pre-gap length  0:00:02.00

     Peak level 96.5 %
     Track quality 99.9 %
     Test CRC BA5DE7A9
     Copy CRC BA5DE7A9
     Copy OK

Track 15

     Filename D:\Музыка\EAC\Машинопись - CD #1 - 2009\15 - Знаю только я.wav

     Peak level 97.0 %
     Track quality 100.0 %
     Test CRC C511051C
     Copy CRC C511051C
     Copy OK

Track 16

     Filename D:\Музыка\EAC\Машинопись - CD #1 - 2009\16 - Свеча.wav

     Pre-gap length  0:00:02.00

     Peak level 97.7 %
     Track quality 100.0 %
     Test CRC 21B66E04
     Copy CRC 21B66E04
     Copy OK

Track 17

     Filename D:\Музыка\EAC\Машинопись - CD #1 - 2009\17 - Проводница.wav

     Pre-gap length  0:00:02.00

     Peak level 96.6 %
     Track quality 100.0 %
     Test CRC C9A7379B
     Copy CRC C9A7379B
     Copy OK

Track 18

     Filename D:\Музыка\EAC\Машинопись - CD #1 - 2009\18 - Однажды мир прогнется под нас.wav

     Peak level 98.0 %
     Track quality 99.9 %
     Test CRC FC9975F8
     Copy CRC FC9975F8
     Copy OK

Track 19

     Filename D:\Музыка\EAC\Машинопись - CD #1 - 2009\19 - Музыка под снегом.wav

     Pre-gap length  0:00:02.00

     Peak level 96.8 %
     Track quality 100.0 %
     Test CRC 05D2B84F
     Copy CRC 05D2B84F
     Copy OK

Track 20

     Filename D:\Музыка\EAC\Машинопись - CD #1 - 2009\20 - Шанхай-Блюз.wav

     Pre-gap length  0:00:01.00

     Peak level 96.6 %
     Track quality 99.9 %
     Test CRC A9344C6E
     Copy CRC A9344C6E
     Copy OK

No errors occurred

End of status report
Код: выделить все
AUDIOCHECKER v2.0 beta (build 457) - by Dester - opdester@freemail.hu
~~~~~~~~~~~~~~~~~~~~~~~~~~~~~~~~~~
-=== НЕ РЕДАКТИРУЙТЕ ЭТОТ ФАЙЛ! ===-

Путь: ...\Disc-1

01 -=- 01 - Черно-белый цвет.flac -=- CDDA (100%)
02 -=- 02 - Старый корабль.flac -=- CDDA (100%)
03 -=- 03 - Посвящение Машине Времени.flac -=- CDDA (100%)
04 -=- 04 - Вверх.flac -=- CDDA (100%)
05 -=- 05 - Ночь.flac -=- CDDA (100%)
06 -=- 06 - Эти реки никуда не текут.flac -=- CDDA (100%)
07 -=- 07 - Синяя птица.flac -=- CDDA (100%)
08 -=- 08 - Она идет по жизни смеясь.flac -=- CDDA (43%)
09 -=- 09 - Кого ты хотел удивить .flac -=- CDDA (100%)
10 -=- 10 - Костер.flac -=- CDDA (100%)
11 -=- 11 - Наш дом.flac -=- CDDA (100%)
12 -=- 12 - Флаг над замком.flac -=- CDDA (99%)
13 -=- 13 - Ты или я (Солнечный остров).flac -=- CDDA (100%)
14 -=- 14 - Я сюда еще вернусь.flac -=- CDDA (100%)
15 -=- 15 - Знаю только я.flac -=- CDDA (99%)
16 -=- 16 - Свеча.flac -=- CDDA (100%)
17 -=- 17 - Проводница.flac -=- CDDA (100%)
18 -=- 18 - Однажды мир прогнется под нас.flac -=- CDDA (100%)
19 -=- 19 - Музыка под снегом.flac -=- CDDA (100%)
20 -=- 20 - Шанхай-Блюз.flac -=- CDDA (100%)

Сводка 97,05% CDDA

122807908
Код: выделить все
-----------------------

DON'T MODIFY THIS FILE

-----------------------

PERFORMER: auCDtect Task Manager, ver. 1.6.0 RC1 build 1.6.0.1
Copyright (c) 2008-2010 y-soft. All rights reserved
http://y-soft.org

ANALYZER: auCDtect: CD records authenticity detector, version 0.8.2
Copyright (c) 2004 Oleg Berngardt. All rights reserved.
Copyright (c) 2004 Alexander Djourik. All rights reserved.

FILE: 20 - Шанхай-Блюз.flac
  Size: 26466611 Hash: DAECCC86249C2A2974D4D3D0A750A408 Accuracy: -m0
  Conclusion: CDDA 100%
  Signature: 6919AF86147AC63FE3DD8396D360AF157BDB6F26
FILE: 19 - Музыка под снегом.flac
  Size: 33030980 Hash: ACD975926313D338D7B9235D61317607 Accuracy: -m0
  Conclusion: CDDA 100%
  Signature: AE640FA065642E1872C999743390F67879BE1D7F
FILE: 18 - Однажды мир прогнется под нас.flac
  Size: 20779021 Hash: 4AAD90F040D0AE756C06246C9FD6CDA5 Accuracy: -m0
  Conclusion: CDDA 100%
  Signature: 5FF9098EA203A6205951C84AD9E415B1C69AFB84
FILE: 17 - Проводница.flac
  Size: 21555063 Hash: 7754BF712774A1F39D342371D54E8BE9 Accuracy: -m0
  Conclusion: CDDA 100%
  Signature: 3DD866BCA83A99E54B3C09C4CE813DF52AC5B05D
FILE: 16 - Свеча.flac
  Size: 28596683 Hash: 65E8AC6D48286240C3CE8473D9E57E17 Accuracy: -m0
  Conclusion: CDDA 100%
  Signature: C942588CF7FD2927D9C6F33D014F780913C88D51
FILE: 15 - Знаю только я.flac
  Size: 37817215 Hash: 41F958310BED21C7FC5D833408E4420C Accuracy: -m0
  Conclusion: CDDA 99%
  Signature: ED53F9ED1DB9B426F883C3DAB0A167299024C063
FILE: 14 - Я сюда еще вернусь.flac
  Size: 27144007 Hash: AE9F71E604DA8927858AC10813F8E0BC Accuracy: -m0
  Conclusion: CDDA 100%
  Signature: 3595E517867BF7666C322457FDF1AB2DC129043F
FILE: 13 - Ты или я (Солнечный остров).flac
  Size: 31591427 Hash: 805E435AD7E0490CB7BBE9252A13D9F1 Accuracy: -m0
  Conclusion: CDDA 100%
  Signature: 54F1029A3DDB380070207EA890BD028EB3A644B4
FILE: 12 - Флаг над замком.flac
  Size: 23134739 Hash: BC89EB2CB7F3CECA1B93E5E839DCC3D3 Accuracy: -m0
  Conclusion: CDDA 99%
  Signature: 92F48737E92DE9A8A64119262BFD08D13BCDE3A7
FILE: 11 - Наш дом.flac
  Size: 25466029 Hash: D1D729D985A96D74A6E6CC800D44921A Accuracy: -m0
  Conclusion: CDDA 100%
  Signature: C1CD54CC829EE2D38C3342F7BB6C2C4EEB353B16
FILE: 10 - Костер.flac
  Size: 33558366 Hash: BDCD5DE96836946BB5F1DD6126505BA8 Accuracy: -m0
  Conclusion: CDDA 100%
  Signature: D6D58177F08C8DBD8F0E3BF2B475B27E04E78DDB
FILE: 09 - Кого ты хотел удивить .flac
  Size: 33453393 Hash: F0A830EAD1DCD9FA7752A5C28E977799 Accuracy: -m0
  Conclusion: CDDA 100%
  Signature: AE0FDD8092DF1D2EFA5CAA8D6E6AD6495F5DFE5B
FILE: 08 - Она идет по жизни смеясь.flac
  Size: 15819644 Hash: 4FB62CD3064D8EAE89601CB9B9DB5899 Accuracy: -m0
  Conclusion: CDDA 43%
  Signature: A896975EA8631F18C0466BA2DE5619FE811D18F2
FILE: 07 - Синяя птица.flac
  Size: 22340885 Hash: CED7ACA6F6B898F6F4594BE80867DEAD Accuracy: -m0
  Conclusion: CDDA 100%
  Signature: 93E9D6A94D31354A55B03F5E48DC3676EDC6C4B7
FILE: 06 - Эти реки никуда не текут.flac
  Size: 28726797 Hash: 37D0BB85FB421D725F46C9939AECD41A Accuracy: -m0
  Conclusion: CDDA 100%
  Signature: 02AD6DA9C3547B3776896EFE704B1C1E30542BDF
FILE: 05 - Ночь.flac
  Size: 24715816 Hash: 58D8D76F9833304BE1B42E0FDA78BE0D Accuracy: -m0
  Conclusion: CDDA 100%
  Signature: A61D0624F1B093544849473B33BBB6722218482F
FILE: 04 - Вверх.flac
  Size: 34807984 Hash: 5539C2B1ABF0283935E867F35E185DFF Accuracy: -m0
  Conclusion: CDDA 100%
  Signature: 5068FA4213E00753402A5B0E92EA1F3088BEF9DA
FILE: 03 - Посвящение Машине Времени.flac
  Size: 43630136 Hash: 269C571967DECD306CBABF1208446157 Accuracy: -m0
  Conclusion: CDDA 100%
  Signature: 52C997F734D35BF4FE345D1863A779A5253DE7A5
FILE: 02 - Старый корабль.flac
  Size: 27563199 Hash: BAC2C7D7ED3356D6FABE2E3D31E30B26 Accuracy: -m0
  Conclusion: CDDA 100%
  Signature: 190039AC992CECC2D4A4A51D928B0B2D3C24DCDF
FILE: 01 - Черно-белый цвет.flac
  Size: 26564556 Hash: 0B3B10CDB9FF84F4F05531009008D989 Accuracy: -m0
  Conclusion: CDDA 100%
  Signature: B663756495BAE523B96ACBCDD5C319C4E5469D06
Трeклиcт:
01. Ляпис Трубецкой - Скворец
02. Бумбокс - Звезды не ездят в метро
03. Zdob si Zdub - Необычайно грустная песня, или Телега
04. Cabernet Deneuve - Старый корабль
05. Х*й забей feat. Марья Искусница - Блюз о безусловном вреде пьянства
06. Рубль - День гнева
07. Billy's Band - За тех, кто в море
08. Каста - Однажды мир прогнется под нас
09. Сурганова и Оркестр - Весь мир сошел с ума
10. Музыкальный коллектив Петра Налича - Она идет по жизни смеясь
11. Migloko - Не дай мне упасть
12. Ирина Сурина и Тимур Ведерников - Всегда одинок
13. Сплин - Это было так давно
14. Агата Кристи - Он был старше ее
15. Александр Ф. Скляр - Марионетки
16. СерьГа feat. Гарик Сукачев - Гимн забору
17. Тараканы! - Скачки
18. Илья Лагутенко и Aeronautica - Полный штиль
19. Грим - Свеча
20. Animal Джаz - Круги на воде
Прoдoлжительнoсть: 01:17:16
Код: выделить все
Exact Audio Copy V0.99 prebeta 5 from 4. May 2009

EAC extraction logfile from 12. December 2009, 3:50

Various / Машинопись - CD #2

Used drive  : Optiarc DVD RW AD-7530B   Adapter: 0  ID: 0

Read mode               : Secure
Utilize accurate stream : Yes
Defeat audio cache      : Yes
Make use of C2 pointers : No

Read offset correction                      : 6
Overread into Lead-In and Lead-Out          : No
Fill up missing offset samples with silence : Yes
Delete leading and trailing silent blocks   : No
Null samples used in CRC calculations       : Yes
Used interface                              : Native Win32 interface for Win NT & 2000
Gap handling                                : Appended to previous track

Used output format              : User Defined Encoder
Selected bitrate                : 128 kBit/s
Quality                         : High
Add ID3 tag                     : No
Command line compressor         : C:\Program Files\Exact Audio Copy\Flac\flac.exe
Additional command line options : -V -8 -T "artist=%a" -T "title=%t" -T "album=%g" -T "date=%y" -T "tracknumber=%n" -T "genre=%m" %s

TOC of the extracted CD

     Track |   Start  |  Length  | Start sector | End sector
    ---------------------------------------------------------
        1  |  0:00.00 |  3:30.17 |         0    |    15766
        2  |  3:30.17 |  3:22.38 |     15767    |    30954
        3  |  6:52.55 |  5:09.36 |     30955    |    54165
        4  | 12:02.16 |  3:20.18 |     54166    |    69183
        5  | 15:22.34 |  4:07.29 |     69184    |    87737
        6  | 19:29.63 |  2:08.46 |     87738    |    97383
        7  | 21:38.34 |  5:00.00 |     97384    |   119883
        8  | 26:38.34 |  2:47.27 |    119884    |   132435
        9  | 29:25.61 |  4:38.37 |    132436    |   153322
       10  | 34:04.23 |  2:01.57 |    153323    |   162454
       11  | 36:06.05 |  2:23.27 |    162455    |   173206
       12  | 38:29.32 |  4:04.13 |    173207    |   191519
       13  | 42:33.45 |  4:21.03 |    191520    |   211097
       14  | 46:54.48 |  5:16.54 |    211098    |   234851
       15  | 52:11.27 |  5:25.72 |    234852    |   259298
       16  | 57:37.24 |  2:23.21 |    259299    |   270044
       17  | 60:00.45 |  2:46.39 |    270045    |   282533
       18  | 62:47.09 |  4:40.47 |    282534    |   303580
       19  | 67:27.56 |  4:57.68 |    303581    |   325923
       20  | 72:25.49 |  5:02.56 |    325924    |   348629

Track  1

     Filename D:\Музыка\EAC\Машинопись - CD #2 - 2009\01 - Скворец.wav

     Pre-gap length  0:00:02.00

     Peak level 98.8 %
     Track quality 100.0 %
     Test CRC 0FB2FD6E
     Copy CRC 0FB2FD6E
     Copy OK

Track  2

     Filename D:\Музыка\EAC\Машинопись - CD #2 - 2009\02 - Звезды не ездят в метро.wav

     Peak level 100.0 %
     Track quality 100.0 %
     Test CRC 96370B19
     Copy CRC 96370B19
     Copy OK

Track  3

     Filename D:\Музыка\EAC\Машинопись - CD #2 - 2009\03 - Необычайно грустная песня, или Телега.wav

     Peak level 97.1 %
     Track quality 99.9 %
     Test CRC A35187EE
     Copy CRC A35187EE
     Copy OK

Track  4

     Filename D:\Музыка\EAC\Машинопись - CD #2 - 2009\04 - Старый корабль.wav

     Peak level 97.4 %
     Track quality 99.9 %
     Test CRC BD6330A6
     Copy CRC BD6330A6
     Copy OK

Track  5

     Filename D:\Музыка\EAC\Машинопись - CD #2 - 2009\05 - Блюз о безусловном вреде пьянства.wav

     Peak level 96.7 %
     Track quality 99.9 %
     Test CRC D6FD1599
     Copy CRC D6FD1599
     Copy OK

Track  6

     Filename D:\Музыка\EAC\Машинопись - CD #2 - 2009\06 - День гнева.wav

     Peak level 96.9 %
     Track quality 100.0 %
     Test CRC 35078EC2
     Copy CRC 35078EC2
     Copy OK

Track  7

     Filename D:\Музыка\EAC\Машинопись - CD #2 - 2009\07 - За тех, кто в море.wav

     Peak level 97.1 %
     Track quality 100.0 %
     Test CRC DC8E3D83
     Copy CRC DC8E3D83
     Copy OK

Track  8

     Filename D:\Музыка\EAC\Машинопись - CD #2 - 2009\08 - Однажды мир прогнется под нас.wav

     Peak level 96.6 %
     Track quality 99.9 %
     Test CRC 6ABB969D
     Copy CRC 6ABB969D
     Copy OK

Track  9

     Filename D:\Музыка\EAC\Машинопись - CD #2 - 2009\09 - Весь мир сошел с ума.wav

     Peak level 96.1 %
     Track quality 100.0 %
     Test CRC 8A021FD2
     Copy CRC 8A021FD2
     Copy OK

Track 10

     Filename D:\Музыка\EAC\Машинопись - CD #2 - 2009\10 - Она идет по жизни смеясь.wav

     Peak level 96.6 %
     Track quality 100.0 %
     Test CRC E14AB709
     Copy CRC E14AB709
     Copy OK

Track 11

     Filename D:\Музыка\EAC\Машинопись - CD #2 - 2009\11 - Не дай мне упасть.wav

     Peak level 97.7 %
     Track quality 100.0 %
     Test CRC 4126E6E9
     Copy CRC 4126E6E9
     Copy OK

Track 12

     Filename D:\Музыка\EAC\Машинопись - CD #2 - 2009\12 - Всегда одинок.wav

     Peak level 97.0 %
     Track quality 100.0 %
     Test CRC B3326FD6
     Copy CRC B3326FD6
     Copy OK

Track 13

     Filename D:\Музыка\EAC\Машинопись - CD #2 - 2009\13 - Это было так давно.wav

     Peak level 97.4 %
     Track quality 100.0 %
     Test CRC E5F01FC8
     Copy CRC E5F01FC8
     Copy OK

Track 14

     Filename D:\Музыка\EAC\Машинопись - CD #2 - 2009\14 - Он был старше ее.wav

     Peak level 96.4 %
     Track quality 100.0 %
     Test CRC 49753CF6
     Copy CRC 49753CF6
     Copy OK

Track 15

     Filename D:\Музыка\EAC\Машинопись - CD #2 - 2009\15 - Марионетки.wav

     Peak level 97.0 %
     Track quality 100.0 %
     Test CRC C2550A98
     Copy CRC C2550A98
     Copy OK

Track 16

     Filename D:\Музыка\EAC\Машинопись - CD #2 - 2009\16 - Гимн забору.wav

     Peak level 96.9 %
     Track quality 100.0 %
     Test CRC 2F6F8B96
     Copy CRC 2F6F8B96
     Copy OK

Track 17

     Filename D:\Музыка\EAC\Машинопись - CD #2 - 2009\17 - Скачки.wav

     Peak level 96.4 %
     Track quality 100.0 %
     Test CRC 765192A0
     Copy CRC 765192A0
     Copy OK

Track 18

     Filename D:\Музыка\EAC\Машинопись - CD #2 - 2009\18 - Полный штиль.wav

     Peak level 96.3 %
     Track quality 100.0 %
     Test CRC EBCB81C0
     Copy CRC EBCB81C0
     Copy OK

Track 19

     Filename D:\Музыка\EAC\Машинопись - CD #2 - 2009\19 - Свеча.wav

     Peak level 97.0 %
     Track quality 100.0 %
     Test CRC C6D9FB2F
     Copy CRC C6D9FB2F
     Copy OK

Track 20

     Filename D:\Музыка\EAC\Машинопись - CD #2 - 2009\20 - Круги на воде.wav

     Peak level 96.6 %
     Track quality 100.0 %
     Test CRC AA52D3F6
     Copy CRC AA52D3F6
     Copy OK

No errors occurred

End of status report
Код: выделить все
AUDIOCHECKER v2.0 beta (build 457) - by Dester - opdester@freemail.hu
~~~~~~~~~~~~~~~~~~~~~~~~~~~~~~~~~~
-=== НЕ РЕДАКТИРУЙТЕ ЭТОТ ФАЙЛ! ===-

Путь: ...\Disc-2

01 -=- 01 - Скворец.flac -=- CDDA (100%)
02 -=- 02 - Звезды не ездят в метро.flac -=- CDDA (100%)
03 -=- 03 - Необычайно грустная песня, или Телега.flac -=- CDDA (100%)
04 -=- 04 - Старый корабль.flac -=- CDDA (100%)
05 -=- 05 - Блюз о безусловном вреде пьянства.flac -=- CDDA (100%)
06 -=- 06 - День гнева.flac -=- CDDA (100%)
07 -=- 07 - За тех, кто в море.flac -=- CDDA (100%)
08 -=- 08 - Однажды мир прогнется под нас.flac -=- CDDA (100%)
09 -=- 09 - Весь мир сошел с ума.flac -=- CDDA (100%)
10 -=- 10 - Она идет по жизни смеясь.flac -=- CDDA (100%)
11 -=- 11 - Не дай мне упасть.flac -=- CDDA (99%)
12 -=- 12 - Всегда одинок.flac -=- CDDA (100%)
13 -=- 13 - Это было так давно.flac -=- CDDA (100%)
14 -=- 14 - Он был старше ее.flac -=- CDDA (99%)
15 -=- 15 - Марионетки.flac -=- CDDA (100%)
16 -=- 16 - Гимн забору.flac -=- CDDA (100%)
17 -=- 17 - Скачки.flac -=- CDDA (99%)
18 -=- 18 - Полный штиль.flac -=- CDDA (100%)
19 -=- 19 - Свеча.flac -=- CDDA (100%)
20 -=- 20 - Круги на воде.flac -=- CDDA (100%)

Сводка 99,85% CDDA

107904516
Код: выделить все
-----------------------

DON'T MODIFY THIS FILE

-----------------------

PERFORMER: auCDtect Task Manager, ver. 1.6.0 RC1 build 1.6.0.1
Copyright (c) 2008-2010 y-soft. All rights reserved
http://y-soft.org

ANALYZER: auCDtect: CD records authenticity detector, version 0.8.2
Copyright (c) 2004 Oleg Berngardt. All rights reserved.
Copyright (c) 2004 Alexander Djourik. All rights reserved.

FILE: 20 - Круги на воде.flac
  Size: 39307616 Hash: 6B73EFB60641258132B6A9A5B5D5718B Accuracy: -m0
  Conclusion: CDDA 100%
  Signature: FA03F2008C4F1E51D700E4789B6B1AF9B74E8999
FILE: 19 - Свеча.flac
  Size: 32658525 Hash: 5B6C1D71B672B9C6F297317E181D73B2 Accuracy: -m0
  Conclusion: CDDA 100%
  Signature: D289AB9961A662F0D6D1B481EFE98EA11998212B
FILE: 18 - Полный штиль.flac
  Size: 31906903 Hash: 2E45E24F051FFAA4C973E0E68AAF0208 Accuracy: -m0
  Conclusion: CDDA 100%
  Signature: F7779C7E2180CE675858E36CB78AF61CB528BE59
FILE: 17 - Скачки.flac
  Size: 22276594 Hash: 3413A07265788CAA3CCA6149E2666C2D Accuracy: -m0
  Conclusion: CDDA 99%
  Signature: 8E8A9A981785DBA4ED913FD7CD953EB3A40F40E5
FILE: 16 - Гимн забору.flac
  Size: 18733892 Hash: BE6F3413255A8F3FE22FB7DEFF614BA2 Accuracy: -m0
  Conclusion: CDDA 100%
  Signature: 623E52AE328C7F26FBAA8769090A34EF7EE5398A
FILE: 15 - Марионетки.flac
  Size: 39552679 Hash: 2FAEE5D9E3C71315EC61F526151907AD Accuracy: -m0
  Conclusion: CDDA 100%
  Signature: 58DA5A78241A1CBE9E34285B45BB58673F909F5A
FILE: 14 - Он был старше ее.flac
  Size: 36695005 Hash: 1AFAB7F420696F463E85FDF4889DB521 Accuracy: -m0
  Conclusion: CDDA 99%
  Signature: 9B2BE3F39908C1DD4EE302B2E1CBB36DE366A6B3
FILE: 13 - Это было так давно.flac
  Size: 32830409 Hash: A800DB124ECDDB88525272EEFEACED9E Accuracy: -m0
  Conclusion: CDDA 100%
  Signature: BF3DECE06E894954DCF6AB5EBC3250C9C71DF38F
FILE: 12 - Всегда одинок.flac
  Size: 28520852 Hash: 2D51828E5A48D2BB8056209DFC6E49F3 Accuracy: -m0
  Conclusion: CDDA 100%
  Signature: 889838B4A9248AFBB6850A33808CE8AC52D4CE4E
FILE: 11 - Не дай мне упасть.flac
  Size: 15859062 Hash: 5EDF893EF6B9B7F728D16F57B17A40D8 Accuracy: -m0
  Conclusion: CDDA 99%
  Signature: 0D4E1882134126DDD850E3FFD35E55667F919595
FILE: 10 - Она идет по жизни смеясь.flac
  Size: 12031128 Hash: E9D71393EC2B78BE983DF0288AF1EDD6 Accuracy: -m0
  Conclusion: CDDA 100%
  Signature: 37DA56CD8187F0982609E58141F6F15DB01EB5A7
FILE: 09 - Весь мир сошел с ума.flac
  Size: 32028657 Hash: BC418B78D315BE534BA060DE20D7B8F2 Accuracy: -m0
  Conclusion: CDDA 100%
  Signature: CE76911BFE6A1C733890DF76BBB5927A2CCEE507
FILE: 08 - Однажды мир прогнется под нас.flac
  Size: 20495678 Hash: 0C84F7547DA37AA57581FC35CEEA9464 Accuracy: -m0
  Conclusion: CDDA 100%
  Signature: 31FC7B2626A745B1BF4E791858E7EE10E7381641
FILE: 07 - За тех, кто в море.flac
  Size: 32529411 Hash: C07F779C848FFFDB0DA05370A332F1BF Accuracy: -m0
  Conclusion: CDDA 100%
  Signature: B4C5A21E8366089B8858E157F2D41B36AE598DA6
FILE: 06 - День гнева.flac
  Size: 16553785 Hash: 8156B44491B84FAD6CD29968E0273086 Accuracy: -m0
  Conclusion: CDDA 100%
  Signature: 0ACB6725773BB3A22D62978B41A21E0F6CD7907C
FILE: 05 - Блюз о безусловном вреде пьянства.flac
  Size: 30332586 Hash: FE1DEEC39732BC998E7F35129472F312 Accuracy: -m0
  Conclusion: CDDA 100%
  Signature: 31E6248A131C80D09CAA24624D7FEBDA86C90182
FILE: 04 - Старый корабль.flac
  Size: 23075763 Hash: 3A480711B344C080EF5FAA6373D5BA70 Accuracy: -m0
  Conclusion: CDDA 100%
  Signature: 6180DC8B8CEBF724E2C22877932C5C2208F218A6
FILE: 03 - Необычайно грустная песня, или Телега.flac
  Size: 41411209 Hash: 61CFC4D9865E225DC5550FAC927B277B Accuracy: -m0
  Conclusion: CDDA 100%
  Signature: FD4595D9B41D6C22029490F76A8E918CBC6575C4
FILE: 02 - Звезды не ездят в метро.flac
  Size: 26737092 Hash: 6FB95084060B023599646353FFB5AAB7 Accuracy: -m0
  Conclusion: CDDA 100%
  Signature: 950C71A9CFDD66AFC171C729A993EC7F0D8522D5
FILE: 01 - Скворец.flac
  Size: 26685698 Hash: A5A0149199EC5F128C1BC6D44A088A7D Accuracy: -m0
  Conclusion: CDDA 100%
  Signature: FBE2C03A03E5A4CAB41933135893104F42C5C28D
11 декабря, в день юбилейного концерта «Машины Времени» в «Олимпийском», в продажу поступит альбом-трибьют «Машинопись» - двойной диск, на котором российские (и не только) музыканты перепевают песни «Машины Времени». Пластинка замышлялась как одинарная, но как только в прессу просочилась информация о ее подготовке – все новые и новые группы стали звонить и предлагать свои версии песен «Машины». В результате – это получилось совершенно не специально – на момент написания этого пресс-релиза в списке трибьюта находится ровно сорок групп и исполнителей. И, соответственно, сорок песен – по одной на каждый прожитый «Машиной» год. Возможно, будут и еще – тогда на «Машинописи» появится и бонус-материал.

Среди других участников трибьюта – «Аквариум», «Агата Кристи», «Billy’s Band», «Браво», «Високосный год», Евгений Гришковец и «Бигуди», «Zdob Si Zdub», «Конец Фильма», «Ляпис Трубецкой», «Моральный Кодекс», «Пилот», Николай Расторгуев, Сергей Шнуров и «Рубль», «Тараканы!», Николай Фоменко и «Бобры», «Ума2рман», «ЧАЙФ», «Чиж и Компания», «Animal ДжаZ»… Список, как нетрудно догадаться, далеко не полон. Валерий Сюткин, например, выступает на этом альбоме и как исполнитель – он записал «Однажды мир прогнется под нас», и как автор – точнее, соавтор «Шанхай-Блюза». Александр Градский спел с симфоническим оркестром – он объединил в одной композиции «Снег» и «Мой Друг (Лучше Всех Играет Блюз)». Алексей Романов записывает со своей группой «Воскресение» песню «Флаг над замком» - ту самую, которую он пел во время своего недолгого пребывания в рядах «Машины Времени» в 1975 году. Иные участники трибьюта в это время еще не родились… Новое поколение российской музыки, кстати, тоже представлено в «Машинописи» обильно: это Сергей Бабкин, «Бумбокс», «Каберне Денев», «Каста», Migloko, «Муха», «Музыкальный коллектив Петра Налича», «СБПЧ»… Любопытно и то, что песни, выбранные музыкантами, практически не повторяются! В обильной дискографии «Машины» каждый выбрал что-то на свой вкус. А если и случились какие-то совпадения (их немного, два-три на всю пластинку) – все равно версии вышли очень разными.

В ходе юбилейного концерта «Машины Времени», который пройдет в «Олимпийском» 11 декабря, в День рождения Андрея Макаревича, на сцену выйдут и некоторые участники «Машинописи»: «Zdob Si Zdub», Максим Леонидов, «Ляпис Трубецкой», Сергей Шнуров и «Рубль», «Серьга» и Гарик Сукачев, «Ума2рман», «ЧАЙФ», «Чиж и Компания». Первые продажи альбома «Машинопись» тоже состоятся именно там.
Время раздачи: Обычно с 10:00 до 00:00 :спит:


Поглощение/вытеснение
Только с согласия релизера

DesideriuM

Реставрация релиза: foralreg
[NNMClub.to]_Tribjut.Mashiny.Vremeni.2009 [FLAC].torrent
 Торрент: Платиновая раздача  Зарегистрирован
 
Скачать


Примагнититься
 Зарегистрирован:   27 Май 2021 12:33:38
 Размер:   1.08 GB  (
 Рейтинг:   4.6 (Голосов: 51)
 Поблагодарили:   259
 Проверка:   Оформление проверено модератором 27 Май 2021 12:36:40
Как cкачать  ·  Как раздать  ·  Правильно оформить  ·  Поднять ратио!  

_________________
Внимание! Временно отсутствую на своих раздачах. Просьба понять и простить.
Shuran80 ®
Свободный релизер
 
Стаж: 15 лет
Сообщений: 3351
Ratio: 1102.143
Раздал: 87.06 TB
Поблагодарили: 195376
100%
Откуда: Ленинград
ussr.gif
Из-за проблемм с тегами в МР3 раздаче вот скрины с плеера: Вроде здесь все нормально.

_________________
Внимание! Временно отсутствую на своих раздачах. Просьба понять и простить.
almikl
Куратор Детского.
Модератор Видео.
RG Всё лучшее - детям!
Uploader 500+
Стаж: 16 лет 10 мес.
Сообщений: 5385
Ratio: 427.872
Поблагодарили: 140864
100%
Откуда: Дааалекое Подмосковье
russia.gif
Спасибо огромное!
xolera
Стаж: 16 лет 2 мес.
Сообщений: 98
Ratio: 0.661
Поблагодарили: 3
100%
macau.gif
Думаю точнее будет - Various Artists - Машинопись (Машина Времени Трибьют)
yuphir
Стаж: 14 лет 8 мес.
Сообщений: 7
Ratio: 4.972
2.09%
ukraine.gif
Люди добрые, подскажите, как это дело на болванку прожечь?
ДимкаM0
Стаж: 14 лет 8 мес.
Сообщений: 32
Ratio: 3.571
100%
Откуда: Дмитров
russia.gif
yuphir писал(а): link
Люди добрые, подскажите, как это дело на болванку прожечь?


Присоединяюсь к просьбе.
Shuran80 ®
Свободный релизер
 
Стаж: 15 лет
Сообщений: 3351
Ratio: 1102.143
Раздал: 87.06 TB
Поблагодарили: 195376
100%
Откуда: Ленинград
ussr.gif
yuphir, ДимкаM0

Если вы хотите получить точную копию этих СД, то лучше записать их с помощью программы EAC.
Подробнее могу написать в ЛС.

_________________
Внимание! Временно отсутствую на своих раздачах. Просьба понять и простить.
yuphir
Стаж: 14 лет 8 мес.
Сообщений: 7
Ratio: 4.972
2.09%
ukraine.gif
SHURAN_80
Спасибо, жду в ЛС.
Felix55
Стаж: 14 лет 11 мес.
Сообщений: 167
Ratio: 4.744
Поблагодарили: 11235
100%
Откуда: Челябинская обл.
russia.gif
Спасибо прослушал,класс!!!!
danrecords
Стаж: 12 лет 4 мес.
Сообщений: 5219
Ratio: 9.196
Поблагодарили: 4
100%
Откуда: Беларусь, Минск
belarus.gif
Молодцы все, кто исполнил песни Макаревича, Крутикова и компании, их вещи бессмертны,и выросло на них уже наверное, не одно поколение, благодарен за раздачу, побольше таких на нашем сайте

_________________
Слушать попсу нельзя!
fant1966
Uploader 100+
Стаж: 14 лет 4 мес.
Сообщений: 262
Ratio: 306.692
100%
russia.gif
danrecords писал(а): Перейти к сообщению
Крутикова

Кутикова. =) ( не наезда ради). Классическая "машинка". Это здорово.
Показать сообщения:   
Начать новую тему   Ответить на тему    Торрент-трекер NNM-Club -> Rock, Alternative, Punk, Metal -> Русский Рок (Lossless) Часовой пояс: GMT + 3
Страница 1 из 1