Классический форум-трекер
canvas not supported
Нас вместе: 4 216 465

Шина — королева джунглей / Sheena (1984) BDRip [H.265/1080p-LQ] [10-bit]


 
 
RSS
Начать новую тему   Ответить на тему    Торрент-трекер NNM-Club -> Классика кино и Старые фильмы до 90-х -> Старые Зарубежные Фильмы (HD, UHD, UHD-LQ, 3D)
Автор Сообщение
buba5473 ®
Стаж: 11 лет 9 мес.
Сообщений: 1158
Ratio: 602.258
Поблагодарили: 142966
100%
Откуда: Новосибирск
russia.gif
Шина — королева джунглей / Sheena (1984) BDRip [H.265/1080p-LQ] [10-bit]
Производство: Великобритания, США / Colgems Productions Ltd., Columbia Pictures Corporation, Delphi II
Жанр: фэнтези, приключения

Режиссер: Джон Гиллермин
Продюсер: Пол Аратоу, Йорам Бен-Ами, Кристиан Ферри
Актеры: Таня Робертс, Тед Уасс, Донован Скотт, Элизабет Ренье Торо, Франс Зобда, Тревор Томас, Клифтон Джонс, Джон Форджэм, Эррол Джон, Сильвестр Уильямс

Описание:
Что делает белокурая, дикая и воинственная красавица в африканских джунглях? Как она сюда попала? Это Шина - королева джунглей. Её белые родители были убиты во время сафари, а девочку взяла на воспитание колдунья из местного племени. Шина выросла, теперь она полна сил, очаровательна, владеет магией и защищает африканские джунгли и их обитателей, как свой собственный дом, от вторжения чужаков!


Рейтинг MPAA: PG (рекомендуется присутствие родителей)

Релиз от: Tigole

Продолжительность: 01:56:22
Качество видео: BDRip
Перевод: Многоголосый профессиональный, Двуголосый профессиональный, Одноголосый любительский
Язык озвучки: русский, английский
Субтитры: английские (Full, SDH)

Видео: HEVC/H.265, 1920x816, ~6001 Kbps
Аудио 1: AC3, 2 ch, 192 Kbps (русский, MVO - ОРТ)
Аудио 2: AC3, 2 ch, 192 Kbps (русский, DVO - SDI Media)
Аудио 3: AC3, 2 ch, 192 Kbps (русский, VO - Максим Логинофф)
Аудио 4: AC3, 2 ch, 224 Kbps (английский)

Общее
Уникальный идентификатор : 247953754952365339288065399812145590723 (0xBA8A27F95AD0E17A97252DD246B0B1C3)
Полное имя : /export/all_movies/Фильмы/Иностранные/Шина – королева джунглей (Sheena).mkv
Формат : Matroska
Версия формата : Version 4
Размер файла : 5,53 Гбайт
Продолжительность : 1 ч. 56 м.
Общий поток : 6 803 Кбит/сек
Название фильма : Шина – королева джунглей / Sheena
Кодирование произвёл : Tigole
Дата выпуска : 1984
Дата кодирования : UTC 2023-01-22 06:34:19
Программа кодирования : mkvmerge v67.0.0 ('Under Stars') 64-bit
Библиотека кодирования : libebml v1.4.2 + libmatroska v1.6.4
Released by : Buba5473 for NNM-Club

Видео
Идентификатор : 1
Формат : HEVC
Формат/Информация : High Efficiency Video Coding
Профиль формата : Main 10@L4@Main
Идентификатор кодека : V_MPEGH/ISO/HEVC
Продолжительность : 1 ч. 56 м.
Битрейт : 6 001 Кбит/сек
Ширина : 1 920 пикселей
Высота : 816 пикселей
Соотношение сторон : 2,35:1
Режим частоты кадров : Постоянный
Частота кадров : 23,976 (24000/1001) кадра/сек
Цветовое пространство : YUV
Субдискретизация насыщенности : 4:2:0
Битовая глубина : 10 бит
Бит/(Пиксели*Кадры) : 0.160
Размер потока : 4,88 Гбайт (88%)
Заголовок : Sheena (1984) (1080p BluRay x265 10bit Tigole)
Библиотека кодирования : x265 3.2+23-52135ffd9bcd:[Windows][GCC 9.2.0][64 bit] 10bit
Настройки программы : cpuid=1111039 / frame-threads=3 / numa-pools=8 / wpp / no-pmode / no-pme / no-psnr / no-ssim / log-level=2 / input-csp=1 / input-res=1920x816 / interlace=0 / total-frames=167377 / level-idc=0 / high-tier=1 / uhd-bd=0 / ref=4 / no-allow-non-conformance / no-repeat-headers / annexb / no-aud / no-hrd / info / hash=0 / no-temporal-layers / open-gop / min-keyint=23 / keyint=250 / gop-lookahead=0 / bframes=8 / b-adapt=2 / b-pyramid / bframe-bias=0 / rc-lookahead=25 / lookahead-slices=4 / scenecut=40 / hist-scenecut=0 / radl=0 / no-splice / no-intra-refresh / ctu=64 / min-cu-size=8 / rect / no-amp / max-tu-size=32 / tu-inter-depth=1 / tu-intra-depth=1 / limit-tu=0 / rdoq-level=2 / dynamic-rd=0.00 / no-ssim-rd / signhide / no-tskip / nr-intra=0 / nr-inter=0 / no-constrained-intra / strong-intra-smoothing / max-merge=3 / limit-refs=3 / limit-modes / me=3 / subme=3 / merange=57 / temporal-mvp / no-frame-dup / no-hme / weightp / no-weightb / no-analyze-src-pics / deblock=0:0 / no-sao / no-sao-non-deblock / rd=4 / selective-sao=0 / no-early-skip / rskip / no-fast-intra / no-tskip-fast / no-cu-lossless / no-b-intra / no-splitrd-skip / rdpenalty=0 / psy-rd=2.00 / psy-rdoq=1.00 / no-rd-refine / no-lossless / cbqpoffs=0 / crqpoffs=0 / rc=abr / bitrate=6000 / qcomp=0.60 / qpstep=4 / stats-write=0 / stats-read=2 / cplxblur=20.0 / qblur=0.5 / ipratio=1.40 / pbratio=1.30 / aq-mode=3 / aq-strength=1.00 / cutree / zone-count=0 / no-strict-cbr / qg-size=32 / no-rc-grain / qpmax=69 / qpmin=0 / no-const-vbv / sar=0 / overscan=0 / videoformat=5 / range=0 / colorprim=2 / transfer=2 / colormatrix=2 / chromaloc=0 / display-window=0 / cll=0,0 / min-luma=0 / max-luma=1023 / log2-max-poc-lsb=8 / vui-timing-info / vui-hrd-info / slices=1 / no-opt-qp-pps / no-opt-ref-list-length-pps / multi-pass-opt-rps / scenecut-bias=0.05 / hist-threshold=0.01 / no-opt-cu-delta-qp / aq-motion / no-hdr / no-hdr-opt / no-dhdr10-opt / no-idr-recovery-sei / analysis-reuse-level=5 / scale-factor=0 / refine-intra=0 / refine-inter=0 / refine-mv=1 / refine-ctu-distortion=0 / no-limit-sao / ctu-info=0 / no-lowpass-dct / refine-analysis-type=0 / copy-pic=1 / max-ausize-factor=1.0 / no-dynamic-refine / no-single-sei / no-hevc-aq / no-svt / no-field / qp-adaptation-range=1.00 / no-scenecut-aware-qp
Язык : zxx
Default : Нет
Forced : Нет

Аудио #1
Идентификатор : 2
Формат : AC-3
Формат/Информация : Audio Coding 3
Коммерческое название : Dolby Digital
Идентификатор кодека : A_AC3
Продолжительность : 1 ч. 56 м.
Вид битрейта : Постоянный
Битрейт : 192 Кбит/сек
Каналы : 2 канала
Channel layout : L R
Частота : 48,0 КГц
Частота кадров : 31,250 кадров/сек (1536 SPF)
Метод сжатия : С потерями
Задержка видео : 31 мс.
Размер потока : 160 Мбайт (3%)
Заголовок : Перевод: Профессиональный (многоголосый, закадровый) ОРТ
Язык : Russian
Service kind : Complete Main
Default : Да
Forced : Нет

Аудио #2
Идентификатор : 3
Формат : AC-3
Формат/Информация : Audio Coding 3
Коммерческое название : Dolby Digital
Идентификатор кодека : A_AC3
Продолжительность : 1 ч. 56 м.
Вид битрейта : Постоянный
Битрейт : 192 Кбит/сек
Каналы : 2 канала
Channel layout : L R
Частота : 48,0 КГц
Частота кадров : 31,250 кадров/сек (1536 SPF)
Метод сжатия : С потерями
Задержка видео : 25 мс.
Размер потока : 160 Мбайт (3%)
Заголовок : Перевод: Профессиональный (двухголосый закадровый) SDI Media
Язык : Russian
Service kind : Complete Main
Default : Нет
Forced : Нет

Аудио #3
Идентификатор : 4
Формат : AC-3
Формат/Информация : Audio Coding 3
Коммерческое название : Dolby Digital
Настройки формата : Dolby Surround
Идентификатор кодека : A_AC3
Продолжительность : 1 ч. 56 м.
Вид битрейта : Постоянный
Битрейт : 192 Кбит/сек
Каналы : 2 канала
Channel layout : L R
Частота : 48,0 КГц
Частота кадров : 31,250 кадров/сек (1536 SPF)
Метод сжатия : С потерями
Задержка видео : 31 мс.
Размер потока : 160 Мбайт (3%)
Заголовок : Перевод: Любительский (одноголосый, закадровый) Максим Логинофф
Язык : Russian
Service kind : Complete Main
Default : Нет
Forced : Нет

Аудио #4
Идентификатор : 5
Формат : AC-3
Формат/Информация : Audio Coding 3
Коммерческое название : Dolby Digital
Идентификатор кодека : A_AC3
Продолжительность : 1 ч. 56 м.
Вид битрейта : Постоянный
Битрейт : 224 Кбит/сек
Каналы : 2 канала
Channel layout : L R
Частота : 48,0 КГц
Частота кадров : 31,250 кадров/сек (1536 SPF)
Метод сжатия : С потерями
Задержка видео : 10 мс.
Размер потока : 186 Мбайт (3%)
Язык : English
Service kind : Complete Main
Default : Нет
Forced : Нет

Текст #1
Идентификатор : 6
Формат : UTF-8
Идентификатор кодека : S_TEXT/UTF8
Идентификатор кодека/Информация : UTF-8 Plain Text
Продолжительность : 1 ч. 52 м.
Битрейт : 30 бит/сек
Частота кадров : 0,141 кадр/сек
Count of elements : 953
Размер потока : 24,8 Кбайт (0%)
Язык : English
Default : Да
Forced : Нет

Текст #2
Идентификатор : 7
Формат : UTF-8
Идентификатор кодека : S_TEXT/UTF8
Идентификатор кодека/Информация : UTF-8 Plain Text
Продолжительность : 1 ч. 53 м.
Битрейт : 34 бит/сек
Частота кадров : 0,178 кадр/сек
Count of elements : 1210
Размер потока : 28,8 Кбайт (0%)
Заголовок : SDH
Язык : English
Default : Нет
Forced : Нет

Меню
00:00:00.000 : en:Chapter 01
00:16:28.862 : en:Chapter 02
00:23:40.877 : en:Chapter 03
00:34:24.979 : en:Chapter 04
00:44:18.405 : en:Chapter 05
00:54:34.562 : en:Chapter 06
01:07:31.088 : en:Chapter 07
01:14:02.855 : en:Chapter 08
01:23:55.655 : en:Chapter 09
01:31:49.170 : en:Chapter 10
01:39:51.735 : en:Chapter 11
01:44:41.858 : en:Chapter 12
01:54:07.966 : en:Chapter 13

XMP
Xmp.video.FileName : /export/all_movies/Фильмы/Иностранные/Шина – королева джунглей (Sheena).mkv
Xmp.video.FileSize : 1566.51
Xmp.video.MimeType : video/matroska
Xmp.video.EBMLVersion : 1
Xmp.video.EBMLReadVersion : 1
Xmp.video.DocType : matroska
Xmp.video.DocTypeVersion : 4
Xmp.video.DocTypeReadVersion : 2
Xmp.video.TimecodeScale : 0.001
Xmp.video.MuxingApp : libebml v1.4.2 + libmatroska v1.6.4
Xmp.video.WritingApp : mkvmerge v67.0.0 ('Under Stars') 64-bit
Xmp.video.Duration : 6982143
Xmp.video.DateUTC : 696062059
Xmp.video.Title : Шина – королева джунглей / Sheena
Xmp.video.TotalStream : 33
Xmp.video.DefaultOn : No
Xmp.video.TrackLacing : No
Xmp.video.Codec : V_MPEGH/ISO/HEVC
Xmp.video.FrameRate : 23.976
Xmp.video.TrackLang : zxx
Xmp.video.AspectRatio : 1:1
H.265/HEVC (High Efficiency Video Coding) - это новый стандарт кодирования видео.
*Рипы в фомате HEVC, в настоящее время поддерживается не всеми аппаратными проигрывателями.
*Для корректного воспроизведения может потребоваться обновление ПО.
*Стандарт H.265/HEVC является логическим продолжением стандарта H.264/AVC (Advanced Video Coding), и характеризуется более эффективными алгоритмами сжатия, а также поддержкой высокого разрешения вплоть до 8K UHD (8192x4320). Первая версия стандарта H.265 была опубликована в начале 2013 года.

Любителям решения из коробки - установить последнюю версию на выбор:
Media Player Classic - Black Edition (MPC-BE)
VLC media player
Daum Pot Player
GOM Media Player

Любителям WMP и других плееров, использующих по умолчанию для воспроизведения системные кодеки+сплитеры - установить K-Lite Codec Pack версии 10.1.0 и выше.
Любимые плееры, не использующии по умолчанию для воспроизведения системные кодеки+сплитеры, нужно перенастроить на использование оных.
Скриншоты:


Все одноименные релизы в Клубе

Время раздачи: с 11:00 до 21:00 по Новосибирску (UTC +7) (минимум до появления первых 3-5 скачавших)
[NNMClub.to]_Sheena.torrent
 Торрент: Золотая раздача  Зарегистрирован
 
Зарегистрируйтесь и скачайте торрент!
27.9 KB

Примагнититься
 Зарегистрирован:   22 Янв 2023 14:18:21
 Размер:   5.53 GB  (
 Рейтинг:   4.3 (Голосов: 12)
 Поблагодарили:   70
 Проверка:   Оформление проверено модератором 22 Янв 2023 14:31:38
Как cкачать  ·  Как раздать  ·  Правильно оформить  ·  Поднять ратио!  
ttt0555
Стаж: 11 лет 3 мес.
Сообщений: 28
Ratio: 6.463
0.72%
От создателей Зина - королева войнов
alex59190
Стаж: 13 лет
Сообщений: 140
Ratio: 3.653
Раздал: 13.31 TB
0.4%
ttt0555 писал(а): Перейти к сообщению
От создателей Зина - королева войнов


Нет такого слова - воЙнов.
Показать сообщения:   
Начать новую тему   Ответить на тему    Торрент-трекер NNM-Club -> Классика кино и Старые фильмы до 90-х -> Старые Зарубежные Фильмы (HD, UHD, UHD-LQ, 3D) Часовой пояс: GMT + 3
Страница 1 из 1