Классический форум-трекер
canvas not supported
Нас вместе: 4 234 418

Черный кузнец - Я тот, кто я есть! (2009) [FLAC|Lossless]<Heavy Metal>


 
 
RSS
Начать новую тему   Ответить на тему    Торрент-трекер NNM-Club -> Rock, Alternative, Punk, Metal -> Русский Рок (Lossless)
Автор Сообщение
Cornelius​_Drebbel​ ®
Стаж: 16 лет 10 мес.
Сообщений: 268
Ratio: 1374.641
Поблагодарили: 4799
100%
Откуда: nnm-club
Черный кузнец - Я тот, кто я есть! (2009)
Год: 2009
Жанр: Heavy Metal
Наличие сканов в содержимом раздачи: да
Продолжительность: 00:46:45

Кодек: FLAC
Битрейт: Lossless
Тип рипа: tracks +.cue

Треклист:
01. Интро (0:48)
02. Зеркало времени (6:01)
03. Твой путь (5:42)
04. Прочь! (5:21)
05. Охота во тьме (5:23)
06. Ангел мой (5:00)
07. Иуда (4:24)
08. Черный кузнец (5:06)
09. Пепел (7:06)
10. Я... Помню... (1:54)
Дата релиза: 10 мая 2009, лейбл Redestruct Music (Санкт-Петербург). Диск сопровождается 12ти страничным буклетом.

Михаил Нахимович - вокал, бэк-вокал, хор
Николай Барбуцкий - ритм-гитара, соло-гитара
Николай Курпан - ритм-гитара
Павел Сацердов - бас-гитара
Сергей Курнакин - ударные

Олег Жиляков (Catharsis) - вокал (9)
Олег Соболевский (Stalwart) - вокал (2)
Ася Мовсесян - хор (9)
Михаил Иванов (Железная Воля) - хор (9)
Марина Лапичева (Divinior) - клавишные (2)

Аранжировки, программирование, оркестр - Николай Курпан
Запись - Николай Курпан (Sound Loundry), Дмитрий Розе (RP-Studio)
Продюссирование - Николай Курпан, Михаил Нахимович, Николай Барбуцкий
Саунд-продюссирование, cведение - Дмитрий Розе (RP-Studio)
Мастеринг - Cutting Room (Швеция)
Художник - Лео Хао
Оформление буклета, фотографии - Любовь Подольская

Директор группы - Александр Сидоров
Код:
Exact Audio Copy V0.99 prebeta 5 from 4. May 2009

EAC extraction logfile from 10. August 2009, 17:23

Чёрный Кузнец / Я тот, кто я есть!

Used drive  : Optiarc DVD RW AD-7173S   Adapter: 2  ID: 0

Read mode               : Secure
Utilize accurate stream : Yes
Defeat audio cache      : Yes
Make use of C2 pointers : No

Read offset correction                      : 48
Overread into Lead-In and Lead-Out          : No
Fill up missing offset samples with silence : Yes
Delete leading and trailing silent blocks   : No
Null samples used in CRC calculations       : Yes
Used interface                              : Native Win32 interface for Win NT & 2000
Gap handling                                : Appended to previous track

Used output format : Internal WAV Routines
Sample format      : 44.100 Hz; 16 Bit; Stereo

TOC of the extracted CD

     Track |   Start  |  Length  | Start sector | End sector
    ---------------------------------------------------------
        1  |  0:00.00 |  0:48.38 |         0    |     3637
        2  |  0:48.38 |  6:01.67 |      3638    |    30779
        3  |  6:50.30 |  5:42.09 |     30780    |    56438
        4  | 12:32.39 |  5:21.34 |     56439    |    80547
        5  | 17:53.73 |  5:23.68 |     80548    |   104840
        6  | 23:17.66 |  5:00.36 |    104841    |   127376
        7  | 28:18.27 |  4:24.01 |    127377    |   147177
        8  | 32:42.28 |  5:06.71 |    147178    |   170198
        9  | 37:49.24 |  7:06.47 |    170199    |   202195
       10  | 44:55.71 |  1:54.37 |    202196    |   210782

Track  1

     Filename D:\Lossless\Я тот, кто я есть!\01 Чёрный Кузнец - Интро.wav

     Pre-gap length  0:00:02.00

     Peak level 97.0 %
     Track quality 99.7 %
     Test CRC 8FE58883
     Copy CRC 8FE58883
     Track not present in AccurateRip database
     Copy OK

Track  2

     Filename D:\Lossless\Я тот, кто я есть!\02 Чёрный Кузнец - Зеркало Времени.wav

     Peak level 99.9 %
     Track quality 100.0 %
     Test CRC 5F961872
     Copy CRC 5F961872
     Track not present in AccurateRip database
     Copy OK

Track  3

     Filename D:\Lossless\Я тот, кто я есть!\03 Чёрный Кузнец - Твой Путь.wav

     Peak level 99.9 %
     Track quality 100.0 %
     Test CRC 126C319F
     Copy CRC 126C319F
     Track not present in AccurateRip database
     Copy OK

Track  4

     Filename D:\Lossless\Я тот, кто я есть!\04 Чёрный Кузнец - Прочь!.wav

     Peak level 97.2 %
     Track quality 100.0 %
     Test CRC 3A7482A9
     Copy CRC 3A7482A9
     Track not present in AccurateRip database
     Copy OK

Track  5

     Filename D:\Lossless\Я тот, кто я есть!\05 Чёрный Кузнец - Охота во Тьме.wav

     Pre-gap length  0:00:00.09

     Peak level 97.1 %
     Track quality 100.0 %
     Test CRC D1B4949A
     Copy CRC D1B4949A
     Track not present in AccurateRip database
     Copy OK

Track  6

     Filename D:\Lossless\Я тот, кто я есть!\06 Чёрный Кузнец - Ангел Мой.wav

     Pre-gap length  0:00:02.04

     Peak level 84.8 %
     Track quality 99.9 %
     Test CRC 2EB8A7A1
     Copy CRC 2EB8A7A1
     Track not present in AccurateRip database
     Copy OK

Track  7

     Filename D:\Lossless\Я тот, кто я есть!\07 Чёрный Кузнец - Иуда.wav

     Peak level 97.0 %
     Track quality 99.9 %
     Test CRC 162FADE6
     Copy CRC 162FADE6
     Track not present in AccurateRip database
     Copy OK

Track  8

     Filename D:\Lossless\Я тот, кто я есть!\08 Чёрный Кузнец - Чёрный Кузнец.wav

     Peak level 97.1 %
     Track quality 100.0 %
     Test CRC 2976C3C5
     Copy CRC 2976C3C5
     Track not present in AccurateRip database
     Copy OK

Track  9

     Filename D:\Lossless\Я тот, кто я есть!\09 Чёрный Кузнец - Пепел.wav

     Peak level 99.9 %
     Track quality 100.0 %
     Test CRC 0EDFDEB6
     Copy CRC 0EDFDEB6
     Track not present in AccurateRip database
     Copy OK

Track 10

     Filename D:\Lossless\Я тот, кто я есть!\10 Чёрный Кузнец - Я... Помню....wav

     Peak level 84.6 %
     Track quality 100.0 %
     Test CRC D7BE6DC5
     Copy CRC D7BE6DC5
     Track not present in AccurateRip database
     Copy OK

None of the tracks are present in the AccurateRip database

No errors occurred

End of status report
Код:
-----------------------

DON'T MODIFY THIS FILE

-----------------------

PERFORMER: auCDtect Task Manager, ver. 1.6.0 RC1 build 1.6.0.1
Copyright (c) 2008-2010 y-soft. All rights reserved
http://y-soft.org

ANALYZER: auCDtect: CD records authenticity detector, version 0.8.2
Copyright (c) 2004 Oleg Berngardt. All rights reserved.
Copyright (c) 2004 Alexander Djourik. All rights reserved.

FILE: 10 - Я... Помню....flac
  Size: 12381163 Hash: 1DD23F1CFE36B00B249E5ADB567C5B88 Accuracy: -m0
  Conclusion: CDDA 100%
  Signature: 4D55CCB078082D82CA8B486BF8EA78D8D7800262
FILE: 09 - Пепел.flac
  Size: 55663788 Hash: 94A3D6E66982E283212F55576554810B Accuracy: -m0
  Conclusion: CDDA 100%
  Signature: 19E898B7D32C958703989E5A50633BB67F7CCC75
FILE: 08 - Черный кузнец.flac
  Size: 40166332 Hash: 586EE2C1B83B65C0001B08856041897D Accuracy: -m0
  Conclusion: CDDA 100%
  Signature: BE5D102011886BE528CD9644688559D5A9293479
FILE: 07 - Иуда.flac
  Size: 35402739 Hash: 7E54394AAC9BF6AAF2C792A2D16DCBA9 Accuracy: -m0
  Conclusion: CDDA 100%
  Signature: 1675AEC624740645B2087ED0518D836BE5044CF6
FILE: 06 - Ангел мой.flac
  Size: 37871723 Hash: 7D6864D4F42DB46CFE9D9356CFE3AB33 Accuracy: -m0
  Conclusion: CDDA 100%
  Signature: 366B84C5E2244AA93B2449CCAAD60608BE422995
FILE: 05 - Охота во тьме.flac
  Size: 43984473 Hash: BD6527A38672BDED5F229BE2BAF53808 Accuracy: -m0
  Conclusion: CDDA 100%
  Signature: 740CA8AF3903E8AFC508E748398E2441EE05A06B
FILE: 04 - Прочь!.flac
  Size: 43701127 Hash: 13C31D618282F34BEE536DCA1DAB99BB Accuracy: -m0
  Conclusion: CDDA 100%
  Signature: D7EB4B9DC5BDFA2F9E6CEF35FF2640024C95E103
FILE: 03 - Твой путь.flac
  Size: 44530364 Hash: 9BDFE449D37315498DADAD2F0ECFA9F5 Accuracy: -m0
  Conclusion: CDDA 100%
  Signature: F0F0AF413A2DB859E373BB7EE67397B0B523A6E8
FILE: 02 - Зеркало времени.flac
  Size: 48272332 Hash: 62F72E8F86CB6A90243CE1AFF3DD87FF Accuracy: -m0
  Conclusion: CDDA 100%
  Signature: 8E7A3639D7EAF622BE3C9BBAA0992E3CA47E7CA1
FILE: 01 - Интро.flac
  Size: 2898143 Hash: 97753CE0D17233FE1AFDA5A8F9820141 Accuracy: -m0
  Conclusion: CDDA 100%
  Signature: D01C36F29400CA5327799D6F5453865FF806EFDE

Код:
AUDIOCHECKER v2.0 beta (build 457) - by Dester - opdester@freemail.hu
~~~~~~~~~~~~~~~~~~~~~~~~~~~~~~~~~~
-=== НЕ РЕДАКТИРУЙТЕ ЭТОТ ФАЙЛ! ===-

Путь: ...\2009 - Я тот, кто я есть!

01 -=- 01 - Интро.flac -=- CDDA (100%)
02 -=- 02 - Зеркало времени.flac -=- CDDA (100%)
03 -=- 03 - Твой путь.flac -=- CDDA (100%)
04 -=- 04 - Прочь!.flac -=- CDDA (100%)
05 -=- 05 - Охота во тьме.flac -=- CDDA (100%)
06 -=- 06 - Ангел мой.flac -=- CDDA (100%)
07 -=- 07 - Иуда.flac -=- CDDA (100%)
08 -=- 08 - Черный кузнец.flac -=- CDDA (100%)
09 -=- 09 - Пепел.flac -=- CDDA (100%)
10 -=- 10 - Я... Помню....flac -=- CDDA (100%)

Сводка 100,00% CDDA

1892340

Время раздачи: по-разномуРеставрация от: foralreg
[NNM-Club.ru]_blacksmith2009.torrent
 Торрент: Платиновая раздача  Зарегистрирован
 
Скачать


 Зарегистрирован:   27 Дек 2009 14:13:30
 Размер:   359 MB  (
 Рейтинг:   4.8 (Голосов: 13)
 Поблагодарили:   37
 Проверка:   Оформление проверено модератором 27 Дек 2009 15:23:21
Как cкачать  ·  Как раздать  ·  Правильно оформить  ·  Поднять ратио!  
Показать сообщения:   
Начать новую тему   Ответить на тему    Торрент-трекер NNM-Club -> Rock, Alternative, Punk, Metal -> Русский Рок (Lossless) Часовой пояс: GMT + 3
Страница 1 из 1