Классический форум-трекер
canvas not supported
Нас вместе: 4 231 738

Emanuele Uva - Harbor Harmonies (2024) [FLAC 24/44.1|Lossless|WEB-DL|tracks] <Lounge, Chill Out, Smooth Jazz>


 
 
RSS
Начать новую тему   Ответить на тему    Торрент-трекер NNM-Club -> HD Audio и Многоканальная Музыка -> WEB-DL-Audio
Автор Сообщение
krochka1 ®
RG Music
Стаж: 3 года 3 мес.
Сообщений: 2114
Ratio: 443.29
Поблагодарили: 84147
100%
Emanuele Uva - Harbor Harmonies (2024)
Жанр: Lounge, Chill Out, Smooth Jazz
Издание: MECNA MUSIC ENTERTAINMENT
Источник: Qobuz
Продолжительность: 01:02:01

Кодек: FLAC 24/44.1
Битрейт: Lossless|WEB-DL
Тип рипа: tracks

Треклист:
01. Funky Frequencies (2:43)
02. Groovy Jazz Chronicles (1:57)
03. Melody of the Heart (2:27)
04. Thundering Triumph (2:53)
05. Tranquil Journeys (1:58)
06. Apple Pie (2:13)
07. Heartbreak Lament (2:59)
08. Chill Jazz Chronicles (1:46)
09. Stressful Situations (3:06)
10. Cala Lounge (2:05)
11. Melodies of Repose (2:30)
12. Tranquil Rhythms (2:06)
13. Strade Dell'amore (2:47)
14. Soft Glow (2:08)
15. Glowing Seashore Jazz Affair (2:08)
16. Fragments of Silence (2:35)
17. Vibrazioni Jazz Sulla Spiaggia (2:45)
18. A Journey of Self-Discovery (2:11)
19. Fleeting Glimmers (2:51)
20. Waves of Romance (2:49)
21. Park Jazz (2:22)
22. Risonanze Senza Precedenti (2:11)
23. Floating in Bliss (3:33)
24. Serenata Soothing (2:11)
25. Pulse of the Beats (2:46)
Общее
Полное имя : O:\Emanuele Uva - Harbor Harmonies (2024)\01 - Funky Frequencies.flac
Формат : FLAC
Формат/Информация : Free Lossless Audio Codec
Размер файла : 24,0 Мбайт
Продолжительность : 2 м. 42 с.
Режим общего битрейта : Переменный
Общий поток : 1 236 Кбит/сек
Альбом : Harbor Harmonies
Альбом/Исполнитель : Emanuele Uva
Трек : Funky Frequencies
Трек/Положение : 01
Исполнитель : Emanuele Uva
Композитор : Emanuele Uva
Жанр : Jazz
Дата записи : 2024 / 2024-01-05
ISRC : ITQ572311368
Авторское право : 2024 MECNA MUSIC ENTERTAINMENT 2023 Carlo Cavalli Music Group
UPC : 5063181713379
MEDIATYPE : album
ITUNESADVISORY : 1

Аудио
Формат : FLAC
Формат/Информация : Free Lossless Audio Codec
Продолжительность : 2 м. 42 с.
Вид битрейта : Переменный
Битрейт : 1 236 Кбит/сек
Каналы : 2 канала
Channel layout : L R
Частота : 44,1 КГц
Битовая глубина : 24 бит
Метод сжатия : Без потерь
Размер потока : 24,0 Мбайт (100%)
Библиотека кодирования : libFLAC 1.1.0 (2003-01-26)
MD5 of the unencoded content : 00000000000000000000000000000000

Общее
Полное имя : O:\Emanuele Uva - Harbor Harmonies (2024)\02 - Groovy Jazz Chronicles.flac
Формат : FLAC
Формат/Информация : Free Lossless Audio Codec
Размер файла : 17,7 Мбайт
Продолжительность : 1 м. 57 с.
Режим общего битрейта : Переменный
Общий поток : 1 264 Кбит/сек
Альбом : Harbor Harmonies
Альбом/Исполнитель : Emanuele Uva
Трек : Groovy Jazz Chronicles
Трек/Положение : 02
Исполнитель : Emanuele Uva
Композитор : Emanuele Uva
Жанр : Jazz
Дата записи : 2024 / 2024-01-05
ISRC : ITQ572311369
Авторское право : 2024 MECNA MUSIC ENTERTAINMENT 2023 Carlo Cavalli Music Group
UPC : 5063181713379
MEDIATYPE : album
ITUNESADVISORY : 1

Аудио
Формат : FLAC
Формат/Информация : Free Lossless Audio Codec
Продолжительность : 1 м. 57 с.
Вид битрейта : Переменный
Битрейт : 1 264 Кбит/сек
Каналы : 2 канала
Channel layout : L R
Частота : 44,1 КГц
Битовая глубина : 24 бит
Метод сжатия : Без потерь
Размер потока : 17,7 Мбайт (100%)
Библиотека кодирования : libFLAC 1.1.0 (2003-01-26)
MD5 of the unencoded content : 00000000000000000000000000000000

Общее
Полное имя : O:\Emanuele Uva - Harbor Harmonies (2024)\03 - Melody of the Heart.flac
Формат : FLAC
Формат/Информация : Free Lossless Audio Codec
Размер файла : 22,4 Мбайт
Продолжительность : 2 м. 26 с.
Режим общего битрейта : Переменный
Общий поток : 1 280 Кбит/сек
Альбом : Harbor Harmonies
Альбом/Исполнитель : Emanuele Uva
Трек : Melody of the Heart
Трек/Положение : 03
Исполнитель : Emanuele Uva
Композитор : Emanuele Uva
Жанр : Jazz
Дата записи : 2024 / 2024-01-05
ISRC : ITQ572311370
Авторское право : 2024 MECNA MUSIC ENTERTAINMENT 2023 Carlo Cavalli Music Group
UPC : 5063181713379
MEDIATYPE : album
ITUNESADVISORY : 1

Аудио
Формат : FLAC
Формат/Информация : Free Lossless Audio Codec
Продолжительность : 2 м. 26 с.
Вид битрейта : Переменный
Битрейт : 1 280 Кбит/сек
Каналы : 2 канала
Channel layout : L R
Частота : 44,1 КГц
Битовая глубина : 24 бит
Метод сжатия : Без потерь
Размер потока : 22,4 Мбайт (100%)
Библиотека кодирования : libFLAC 1.1.0 (2003-01-26)
MD5 of the unencoded content : 00000000000000000000000000000000

Общее
Полное имя : O:\Emanuele Uva - Harbor Harmonies (2024)\04 - Thundering Triumph.flac
Формат : FLAC
Формат/Информация : Free Lossless Audio Codec
Размер файла : 28,7 Мбайт
Продолжительность : 2 м. 53 с.
Режим общего битрейта : Переменный
Общий поток : 1 390 Кбит/сек
Альбом : Harbor Harmonies
Альбом/Исполнитель : Emanuele Uva
Трек : Thundering Triumph
Трек/Положение : 04
Исполнитель : Emanuele Uva
Композитор : Emanuele Uva
Жанр : Jazz
Дата записи : 2024 / 2024-01-05
ISRC : ITQ572311371
Авторское право : 2024 MECNA MUSIC ENTERTAINMENT 2023 Carlo Cavalli Music Group
UPC : 5063181713379
MEDIATYPE : album
ITUNESADVISORY : 1

Аудио
Формат : FLAC
Формат/Информация : Free Lossless Audio Codec
Продолжительность : 2 м. 53 с.
Вид битрейта : Переменный
Битрейт : 1 390 Кбит/сек
Каналы : 2 канала
Channel layout : L R
Частота : 44,1 КГц
Битовая глубина : 24 бит
Метод сжатия : Без потерь
Размер потока : 28,7 Мбайт (100%)
Библиотека кодирования : libFLAC 1.1.0 (2003-01-26)
MD5 of the unencoded content : 00000000000000000000000000000000

Общее
Полное имя : O:\Emanuele Uva - Harbor Harmonies (2024)\05 - Tranquil Journeys.flac
Формат : FLAC
Формат/Информация : Free Lossless Audio Codec
Размер файла : 19,7 Мбайт
Продолжительность : 1 м. 57 с.
Режим общего битрейта : Переменный
Общий поток : 1 403 Кбит/сек
Альбом : Harbor Harmonies
Альбом/Исполнитель : Emanuele Uva
Трек : Tranquil Journeys
Трек/Положение : 05
Исполнитель : Emanuele Uva
Композитор : Emanuele Uva
Жанр : Jazz
Дата записи : 2024 / 2024-01-05
ISRC : ITQ572311372
Авторское право : 2024 MECNA MUSIC ENTERTAINMENT 2023 Carlo Cavalli Music Group
UPC : 5063181713379
MEDIATYPE : album
ITUNESADVISORY : 1

Аудио
Формат : FLAC
Формат/Информация : Free Lossless Audio Codec
Продолжительность : 1 м. 57 с.
Вид битрейта : Переменный
Битрейт : 1 402 Кбит/сек
Каналы : 2 канала
Channel layout : L R
Частота : 44,1 КГц
Битовая глубина : 24 бит
Метод сжатия : Без потерь
Размер потока : 19,7 Мбайт (100%)
Библиотека кодирования : libFLAC 1.1.0 (2003-01-26)
MD5 of the unencoded content : 00000000000000000000000000000000

Общее
Полное имя : O:\Emanuele Uva - Harbor Harmonies (2024)\06 - Apple Pie.flac
Формат : FLAC
Формат/Информация : Free Lossless Audio Codec
Размер файла : 19,8 Мбайт
Продолжительность : 2 м. 13 с.
Режим общего битрейта : Переменный
Общий поток : 1 248 Кбит/сек
Альбом : Harbor Harmonies
Альбом/Исполнитель : Emanuele Uva
Трек : Apple Pie
Трек/Положение : 06
Исполнитель : Emanuele Uva
Композитор : Emanuele Uva
Жанр : Jazz
Дата записи : 2024 / 2024-01-05
ISRC : ITQ572311373
Авторское право : 2024 MECNA MUSIC ENTERTAINMENT 2023 Carlo Cavalli Music Group
UPC : 5063181713379
MEDIATYPE : album
ITUNESADVISORY : 1

Аудио
Формат : FLAC
Формат/Информация : Free Lossless Audio Codec
Продолжительность : 2 м. 13 с.
Вид битрейта : Переменный
Битрейт : 1 247 Кбит/сек
Каналы : 2 канала
Channel layout : L R
Частота : 44,1 КГц
Битовая глубина : 24 бит
Метод сжатия : Без потерь
Размер потока : 19,8 Мбайт (100%)
Библиотека кодирования : libFLAC 1.1.0 (2003-01-26)
MD5 of the unencoded content : 00000000000000000000000000000000

Общее
Полное имя : O:\Emanuele Uva - Harbor Harmonies (2024)\07 - Heartbreak Lament.flac
Формат : FLAC
Формат/Информация : Free Lossless Audio Codec
Размер файла : 31,5 Мбайт
Продолжительность : 2 м. 59 с.
Режим общего битрейта : Переменный
Общий поток : 1 473 Кбит/сек
Альбом : Harbor Harmonies
Альбом/Исполнитель : Emanuele Uva
Трек : Heartbreak Lament
Трек/Положение : 07
Исполнитель : Emanuele Uva
Композитор : Emanuele Uva
Жанр : Jazz
Дата записи : 2024 / 2024-01-05
ISRC : ITQ572311374
Авторское право : 2024 MECNA MUSIC ENTERTAINMENT 2023 Carlo Cavalli Music Group
UPC : 5063181713379
MEDIATYPE : album
ITUNESADVISORY : 1

Аудио
Формат : FLAC
Формат/Информация : Free Lossless Audio Codec
Продолжительность : 2 м. 59 с.
Вид битрейта : Переменный
Битрейт : 1 473 Кбит/сек
Каналы : 2 канала
Channel layout : L R
Частота : 44,1 КГц
Битовая глубина : 24 бит
Метод сжатия : Без потерь
Размер потока : 31,5 Мбайт (100%)
Библиотека кодирования : libFLAC 1.1.0 (2003-01-26)
MD5 of the unencoded content : 00000000000000000000000000000000

Общее
Полное имя : O:\Emanuele Uva - Harbor Harmonies (2024)\08 - Chill Jazz Chronicles.flac
Формат : FLAC
Формат/Информация : Free Lossless Audio Codec
Размер файла : 16,1 Мбайт
Продолжительность : 1 м. 46 с.
Режим общего битрейта : Переменный
Общий поток : 1 270 Кбит/сек
Альбом : Harbor Harmonies
Альбом/Исполнитель : Emanuele Uva
Трек : Chill Jazz Chronicles
Трек/Положение : 08
Исполнитель : Emanuele Uva
Композитор : Emanuele Uva
Жанр : Jazz
Дата записи : 2024 / 2024-01-05
ISRC : ITQ572311375
Авторское право : 2024 MECNA MUSIC ENTERTAINMENT 2023 Carlo Cavalli Music Group
UPC : 5063181713379
MEDIATYPE : album
ITUNESADVISORY : 1

Аудио
Формат : FLAC
Формат/Информация : Free Lossless Audio Codec
Продолжительность : 1 м. 46 с.
Вид битрейта : Переменный
Битрейт : 1 270 Кбит/сек
Каналы : 2 канала
Channel layout : L R
Частота : 44,1 КГц
Битовая глубина : 24 бит
Метод сжатия : Без потерь
Размер потока : 16,1 Мбайт (100%)
Библиотека кодирования : libFLAC 1.1.0 (2003-01-26)
MD5 of the unencoded content : 00000000000000000000000000000000

Общее
Полное имя : O:\Emanuele Uva - Harbor Harmonies (2024)\09 - Stressful Situations.flac
Формат : FLAC
Формат/Информация : Free Lossless Audio Codec
Размер файла : 28,3 Мбайт
Продолжительность : 3 м. 5 с.
Режим общего битрейта : Переменный
Общий поток : 1 278 Кбит/сек
Альбом : Harbor Harmonies
Альбом/Исполнитель : Emanuele Uva
Трек : Stressful Situations
Трек/Положение : 09
Исполнитель : Emanuele Uva
Композитор : Emanuele Uva
Жанр : Jazz
Дата записи : 2024 / 2024-01-05
ISRC : ITQ572311376
Авторское право : 2024 MECNA MUSIC ENTERTAINMENT 2023 Carlo Cavalli Music Group
UPC : 5063181713379
MEDIATYPE : album
ITUNESADVISORY : 1

Аудио
Формат : FLAC
Формат/Информация : Free Lossless Audio Codec
Продолжительность : 3 м. 5 с.
Вид битрейта : Переменный
Битрейт : 1 278 Кбит/сек
Каналы : 2 канала
Channel layout : L R
Частота : 44,1 КГц
Битовая глубина : 24 бит
Метод сжатия : Без потерь
Размер потока : 28,3 Мбайт (100%)
Библиотека кодирования : libFLAC 1.1.0 (2003-01-26)
MD5 of the unencoded content : 00000000000000000000000000000000

Общее
Полное имя : O:\Emanuele Uva - Harbor Harmonies (2024)\10 - Cala Lounge.flac
Формат : FLAC
Формат/Информация : Free Lossless Audio Codec
Размер файла : 18,9 Мбайт
Продолжительность : 2 м. 4 с.
Режим общего битрейта : Переменный
Общий поток : 1 272 Кбит/сек
Альбом : Harbor Harmonies
Альбом/Исполнитель : Emanuele Uva
Трек : Cala Lounge
Трек/Положение : 10
Исполнитель : Emanuele Uva
Композитор : Emanuele Uva
Жанр : Jazz
Дата записи : 2024 / 2024-01-05
ISRC : ITQ572311377
Авторское право : 2024 MECNA MUSIC ENTERTAINMENT 2023 Carlo Cavalli Music Group
UPC : 5063181713379
MEDIATYPE : album
ITUNESADVISORY : 1

Аудио
Формат : FLAC
Формат/Информация : Free Lossless Audio Codec
Продолжительность : 2 м. 4 с.
Вид битрейта : Переменный
Битрейт : 1 272 Кбит/сек
Каналы : 2 канала
Channel layout : L R
Частота : 44,1 КГц
Битовая глубина : 24 бит
Метод сжатия : Без потерь
Размер потока : 18,9 Мбайт (100%)
Библиотека кодирования : libFLAC 1.1.0 (2003-01-26)
MD5 of the unencoded content : 00000000000000000000000000000000

Общее
Полное имя : O:\Emanuele Uva - Harbor Harmonies (2024)\11 - Melodies of Repose.flac
Формат : FLAC
Формат/Информация : Free Lossless Audio Codec
Размер файла : 20,6 Мбайт
Продолжительность : 2 м. 30 с.
Режим общего битрейта : Переменный
Общий поток : 1 149 Кбит/сек
Альбом : Harbor Harmonies
Альбом/Исполнитель : Emanuele Uva
Трек : Melodies of Repose
Трек/Положение : 11
Исполнитель : Emanuele Uva
Композитор : Emanuele Uva
Жанр : Jazz
Дата записи : 2024 / 2024-01-05
ISRC : ITQ572311378
Авторское право : 2024 MECNA MUSIC ENTERTAINMENT 2023 Carlo Cavalli Music Group
UPC : 5063181713379
MEDIATYPE : album
ITUNESADVISORY : 1

Аудио
Формат : FLAC
Формат/Информация : Free Lossless Audio Codec
Продолжительность : 2 м. 30 с.
Вид битрейта : Переменный
Битрейт : 1 149 Кбит/сек
Каналы : 2 канала
Channel layout : L R
Частота : 44,1 КГц
Битовая глубина : 24 бит
Метод сжатия : Без потерь
Размер потока : 20,6 Мбайт (100%)
Библиотека кодирования : libFLAC 1.1.0 (2003-01-26)
MD5 of the unencoded content : 00000000000000000000000000000000

Общее
Полное имя : O:\Emanuele Uva - Harbor Harmonies (2024)\12 - Tranquil Rhythms.flac
Формат : FLAC
Формат/Информация : Free Lossless Audio Codec
Размер файла : 21,3 Мбайт
Продолжительность : 2 м. 5 с.
Режим общего битрейта : Переменный
Общий поток : 1 420 Кбит/сек
Альбом : Harbor Harmonies
Альбом/Исполнитель : Emanuele Uva
Трек : Tranquil Rhythms
Трек/Положение : 12
Исполнитель : Emanuele Uva
Композитор : Emanuele Uva
Жанр : Jazz
Дата записи : 2024 / 2024-01-05
ISRC : ITQ572311379
Авторское право : 2024 MECNA MUSIC ENTERTAINMENT 2023 Carlo Cavalli Music Group
UPC : 5063181713379
MEDIATYPE : album
ITUNESADVISORY : 1

Аудио
Формат : FLAC
Формат/Информация : Free Lossless Audio Codec
Продолжительность : 2 м. 5 с.
Вид битрейта : Переменный
Битрейт : 1 420 Кбит/сек
Каналы : 2 канала
Channel layout : L R
Частота : 44,1 КГц
Битовая глубина : 24 бит
Метод сжатия : Без потерь
Размер потока : 21,3 Мбайт (100%)
Библиотека кодирования : libFLAC 1.1.0 (2003-01-26)
MD5 of the unencoded content : 00000000000000000000000000000000

Общее
Полное имя : O:\Emanuele Uva - Harbor Harmonies (2024)\13 - Strade Dell'amore.flac
Формат : FLAC
Формат/Информация : Free Lossless Audio Codec
Размер файла : 28,8 Мбайт
Продолжительность : 2 м. 47 с.
Режим общего битрейта : Переменный
Общий поток : 1 445 Кбит/сек
Альбом : Harbor Harmonies
Альбом/Исполнитель : Emanuele Uva
Трек : Strade Dell'amore
Трек/Положение : 13
Исполнитель : Emanuele Uva
Композитор : Emanuele Uva
Жанр : Jazz
Дата записи : 2024 / 2024-01-05
ISRC : ITQ572311380
Авторское право : 2024 MECNA MUSIC ENTERTAINMENT 2023 Carlo Cavalli Music Group
UPC : 5063181713379
MEDIATYPE : album
ITUNESADVISORY : 1

Аудио
Формат : FLAC
Формат/Информация : Free Lossless Audio Codec
Продолжительность : 2 м. 47 с.
Вид битрейта : Переменный
Битрейт : 1 445 Кбит/сек
Каналы : 2 канала
Channel layout : L R
Частота : 44,1 КГц
Битовая глубина : 24 бит
Метод сжатия : Без потерь
Размер потока : 28,8 Мбайт (100%)
Библиотека кодирования : libFLAC 1.1.0 (2003-01-26)
MD5 of the unencoded content : 00000000000000000000000000000000

Общее
Полное имя : O:\Emanuele Uva - Harbor Harmonies (2024)\14 - Soft Glow.flac
Формат : FLAC
Формат/Информация : Free Lossless Audio Codec
Размер файла : 18,5 Мбайт
Продолжительность : 2 м. 8 с.
Режим общего битрейта : Переменный
Общий поток : 1 211 Кбит/сек
Альбом : Harbor Harmonies
Альбом/Исполнитель : Emanuele Uva
Трек : Soft Glow
Трек/Положение : 14
Исполнитель : Emanuele Uva
Композитор : Emanuele Uva
Жанр : Jazz
Дата записи : 2024 / 2024-01-05
ISRC : ITQ572311381
Авторское право : 2024 MECNA MUSIC ENTERTAINMENT 2023 Carlo Cavalli Music Group
UPC : 5063181713379
MEDIATYPE : album
ITUNESADVISORY : 1

Аудио
Формат : FLAC
Формат/Информация : Free Lossless Audio Codec
Продолжительность : 2 м. 8 с.
Вид битрейта : Переменный
Битрейт : 1 211 Кбит/сек
Каналы : 2 канала
Channel layout : L R
Частота : 44,1 КГц
Битовая глубина : 24 бит
Метод сжатия : Без потерь
Размер потока : 18,5 Мбайт (100%)
Библиотека кодирования : libFLAC 1.1.0 (2003-01-26)
MD5 of the unencoded content : 00000000000000000000000000000000

Общее
Полное имя : O:\Emanuele Uva - Harbor Harmonies (2024)\15 - Glowing Seashore Jazz Affair.flac
Формат : FLAC
Формат/Информация : Free Lossless Audio Codec
Размер файла : 21,4 Мбайт
Продолжительность : 2 м. 7 с.
Режим общего битрейта : Переменный
Общий поток : 1 402 Кбит/сек
Альбом : Harbor Harmonies
Альбом/Исполнитель : Emanuele Uva
Трек : Glowing Seashore Jazz Affair
Трек/Положение : 15
Исполнитель : Emanuele Uva
Композитор : Emanuele Uva
Жанр : Jazz
Дата записи : 2024 / 2024-01-05
ISRC : ITQ572311382
Авторское право : 2024 MECNA MUSIC ENTERTAINMENT 2023 Carlo Cavalli Music Group
UPC : 5063181713379
MEDIATYPE : album
ITUNESADVISORY : 1

Аудио
Формат : FLAC
Формат/Информация : Free Lossless Audio Codec
Продолжительность : 2 м. 7 с.
Вид битрейта : Переменный
Битрейт : 1 402 Кбит/сек
Каналы : 2 канала
Channel layout : L R
Частота : 44,1 КГц
Битовая глубина : 24 бит
Метод сжатия : Без потерь
Размер потока : 21,4 Мбайт (100%)
Библиотека кодирования : libFLAC 1.1.0 (2003-01-26)
MD5 of the unencoded content : 00000000000000000000000000000000

Общее
Полное имя : O:\Emanuele Uva - Harbor Harmonies (2024)\16 - Fragments of Silence.flac
Формат : FLAC
Формат/Информация : Free Lossless Audio Codec
Размер файла : 25,6 Мбайт
Продолжительность : 2 м. 35 с.
Режим общего битрейта : Переменный
Общий поток : 1 385 Кбит/сек
Альбом : Harbor Harmonies
Альбом/Исполнитель : Emanuele Uva
Трек : Fragments of Silence
Трек/Положение : 16
Исполнитель : Emanuele Uva
Композитор : Emanuele Uva
Жанр : Jazz
Дата записи : 2024 / 2024-01-05
ISRC : ITQ572311383
Авторское право : 2024 MECNA MUSIC ENTERTAINMENT 2023 Carlo Cavalli Music Group
UPC : 5063181713379
MEDIATYPE : album
ITUNESADVISORY : 1

Аудио
Формат : FLAC
Формат/Информация : Free Lossless Audio Codec
Продолжительность : 2 м. 35 с.
Вид битрейта : Переменный
Битрейт : 1 385 Кбит/сек
Каналы : 2 канала
Channel layout : L R
Частота : 44,1 КГц
Битовая глубина : 24 бит
Метод сжатия : Без потерь
Размер потока : 25,6 Мбайт (100%)
Библиотека кодирования : libFLAC 1.1.0 (2003-01-26)
MD5 of the unencoded content : 00000000000000000000000000000000

Общее
Полное имя : O:\Emanuele Uva - Harbor Harmonies (2024)\17 - Vibrazioni Jazz Sulla Spiaggia.flac
Формат : FLAC
Формат/Информация : Free Lossless Audio Codec
Размер файла : 26,3 Мбайт
Продолжительность : 2 м. 44 с.
Режим общего битрейта : Переменный
Общий поток : 1 340 Кбит/сек
Альбом : Harbor Harmonies
Альбом/Исполнитель : Emanuele Uva
Трек : Vibrazioni Jazz Sulla Spiaggia
Трек/Положение : 17
Исполнитель : Emanuele Uva
Композитор : Emanuele Uva
Жанр : Jazz
Дата записи : 2024 / 2024-01-05
ISRC : ITQ572311384
Авторское право : 2024 MECNA MUSIC ENTERTAINMENT 2023 Carlo Cavalli Music Group
UPC : 5063181713379
MEDIATYPE : album
ITUNESADVISORY : 1

Аудио
Формат : FLAC
Формат/Информация : Free Lossless Audio Codec
Продолжительность : 2 м. 44 с.
Вид битрейта : Переменный
Битрейт : 1 340 Кбит/сек
Каналы : 2 канала
Channel layout : L R
Частота : 44,1 КГц
Битовая глубина : 24 бит
Метод сжатия : Без потерь
Размер потока : 26,3 Мбайт (100%)
Библиотека кодирования : libFLAC 1.1.0 (2003-01-26)
MD5 of the unencoded content : 00000000000000000000000000000000

Общее
Полное имя : O:\Emanuele Uva - Harbor Harmonies (2024)\18 - A Journey of Self-Discovery.flac
Формат : FLAC
Формат/Информация : Free Lossless Audio Codec
Размер файла : 23,0 Мбайт
Продолжительность : 2 м. 10 с.
Режим общего битрейта : Переменный
Общий поток : 1 474 Кбит/сек
Альбом : Harbor Harmonies
Альбом/Исполнитель : Emanuele Uva
Трек : A Journey of Self-Discovery
Трек/Положение : 18
Исполнитель : Emanuele Uva
Композитор : Emanuele Uva
Жанр : Jazz
Дата записи : 2024 / 2024-01-05
ISRC : ITQ572311385
Авторское право : 2024 MECNA MUSIC ENTERTAINMENT 2023 Carlo Cavalli Music Group
UPC : 5063181713379
MEDIATYPE : album
ITUNESADVISORY : 1

Аудио
Формат : FLAC
Формат/Информация : Free Lossless Audio Codec
Продолжительность : 2 м. 10 с.
Вид битрейта : Переменный
Битрейт : 1 473 Кбит/сек
Каналы : 2 канала
Channel layout : L R
Частота : 44,1 КГц
Битовая глубина : 24 бит
Метод сжатия : Без потерь
Размер потока : 23,0 Мбайт (100%)
Библиотека кодирования : libFLAC 1.1.0 (2003-01-26)
MD5 of the unencoded content : 00000000000000000000000000000000

Общее
Полное имя : O:\Emanuele Uva - Harbor Harmonies (2024)\19 - Fleeting Glimmers.flac
Формат : FLAC
Формат/Информация : Free Lossless Audio Codec
Размер файла : 31,2 Мбайт
Продолжительность : 2 м. 51 с.
Режим общего битрейта : Переменный
Общий поток : 1 530 Кбит/сек
Альбом : Harbor Harmonies
Альбом/Исполнитель : Emanuele Uva
Трек : Fleeting Glimmers
Трек/Положение : 19
Исполнитель : Emanuele Uva
Композитор : Emanuele Uva
Жанр : Jazz
Дата записи : 2024 / 2024-01-05
ISRC : ITQ572311386
Авторское право : 2024 MECNA MUSIC ENTERTAINMENT 2023 Carlo Cavalli Music Group
UPC : 5063181713379
MEDIATYPE : album
ITUNESADVISORY : 1

Аудио
Формат : FLAC
Формат/Информация : Free Lossless Audio Codec
Продолжительность : 2 м. 51 с.
Вид битрейта : Переменный
Битрейт : 1 530 Кбит/сек
Каналы : 2 канала
Channel layout : L R
Частота : 44,1 КГц
Битовая глубина : 24 бит
Метод сжатия : Без потерь
Размер потока : 31,2 Мбайт (100%)
Библиотека кодирования : libFLAC 1.1.0 (2003-01-26)
MD5 of the unencoded content : 00000000000000000000000000000000

Общее
Полное имя : O:\Emanuele Uva - Harbor Harmonies (2024)\20 - Waves of Romance.flac
Формат : FLAC
Формат/Информация : Free Lossless Audio Codec
Размер файла : 23,8 Мбайт
Продолжительность : 2 м. 49 с.
Режим общего битрейта : Переменный
Общий поток : 1 178 Кбит/сек
Альбом : Harbor Harmonies
Альбом/Исполнитель : Emanuele Uva
Трек : Waves of Romance
Трек/Положение : 20
Исполнитель : Emanuele Uva
Композитор : Emanuele Uva
Жанр : Jazz
Дата записи : 2024 / 2024-01-05
ISRC : ITQ572311387
Авторское право : 2024 MECNA MUSIC ENTERTAINMENT 2023 Carlo Cavalli Music Group
UPC : 5063181713379
MEDIATYPE : album
ITUNESADVISORY : 1

Аудио
Формат : FLAC
Формат/Информация : Free Lossless Audio Codec
Продолжительность : 2 м. 49 с.
Вид битрейта : Переменный
Битрейт : 1 178 Кбит/сек
Каналы : 2 канала
Channel layout : L R
Частота : 44,1 КГц
Битовая глубина : 24 бит
Метод сжатия : Без потерь
Размер потока : 23,8 Мбайт (100%)
Библиотека кодирования : libFLAC 1.1.0 (2003-01-26)
MD5 of the unencoded content : 00000000000000000000000000000000

Общее
Полное имя : O:\Emanuele Uva - Harbor Harmonies (2024)\21 - Park Jazz.flac
Формат : FLAC
Формат/Информация : Free Lossless Audio Codec
Размер файла : 22,0 Мбайт
Продолжительность : 2 м. 22 с.
Режим общего битрейта : Переменный
Общий поток : 1 294 Кбит/сек
Альбом : Harbor Harmonies
Альбом/Исполнитель : Emanuele Uva
Трек : Park Jazz
Трек/Положение : 21
Исполнитель : Emanuele Uva
Композитор : Emanuele Uva
Жанр : Jazz
Дата записи : 2024 / 2024-01-05
ISRC : ITQ572311388
Авторское право : 2024 MECNA MUSIC ENTERTAINMENT 2023 Carlo Cavalli Music Group
UPC : 5063181713379
MEDIATYPE : album
ITUNESADVISORY : 1

Аудио
Формат : FLAC
Формат/Информация : Free Lossless Audio Codec
Продолжительность : 2 м. 22 с.
Вид битрейта : Переменный
Битрейт : 1 294 Кбит/сек
Каналы : 2 канала
Channel layout : L R
Частота : 44,1 КГц
Битовая глубина : 24 бит
Метод сжатия : Без потерь
Размер потока : 22,0 Мбайт (100%)
Библиотека кодирования : libFLAC 1.1.0 (2003-01-26)
MD5 of the unencoded content : 00000000000000000000000000000000

Общее
Полное имя : O:\Emanuele Uva - Harbor Harmonies (2024)\22 - Risonanze Senza Precedenti.flac
Формат : FLAC
Формат/Информация : Free Lossless Audio Codec
Размер файла : 20,0 Мбайт
Продолжительность : 2 м. 11 с.
Режим общего битрейта : Переменный
Общий поток : 1 276 Кбит/сек
Альбом : Harbor Harmonies
Альбом/Исполнитель : Emanuele Uva
Трек : Risonanze Senza Precedenti
Трек/Положение : 22
Исполнитель : Emanuele Uva
Композитор : Emanuele Uva
Жанр : Jazz
Дата записи : 2024 / 2024-01-05
ISRC : ITQ572311389
Авторское право : 2024 MECNA MUSIC ENTERTAINMENT 2023 Carlo Cavalli Music Group
UPC : 5063181713379
MEDIATYPE : album
ITUNESADVISORY : 1

Аудио
Формат : FLAC
Формат/Информация : Free Lossless Audio Codec
Продолжительность : 2 м. 11 с.
Вид битрейта : Переменный
Битрейт : 1 275 Кбит/сек
Каналы : 2 канала
Channel layout : L R
Частота : 44,1 КГц
Битовая глубина : 24 бит
Метод сжатия : Без потерь
Размер потока : 20,0 Мбайт (100%)
Библиотека кодирования : libFLAC 1.1.0 (2003-01-26)
MD5 of the unencoded content : 00000000000000000000000000000000

Общее
Полное имя : O:\Emanuele Uva - Harbor Harmonies (2024)\23 - Floating in Bliss.flac
Формат : FLAC
Формат/Информация : Free Lossless Audio Codec
Размер файла : 30,1 Мбайт
Продолжительность : 3 м. 32 с.
Режим общего битрейта : Переменный
Общий поток : 1 184 Кбит/сек
Альбом : Harbor Harmonies
Альбом/Исполнитель : Emanuele Uva
Трек : Floating in Bliss
Трек/Положение : 23
Исполнитель : Emanuele Uva
Композитор : Emanuele Uva
Жанр : Jazz
Дата записи : 2024 / 2024-01-05
ISRC : ITQ572311390
Авторское право : 2024 MECNA MUSIC ENTERTAINMENT 2023 Carlo Cavalli Music Group
UPC : 5063181713379
MEDIATYPE : album
ITUNESADVISORY : 1

Аудио
Формат : FLAC
Формат/Информация : Free Lossless Audio Codec
Продолжительность : 3 м. 32 с.
Вид битрейта : Переменный
Битрейт : 1 184 Кбит/сек
Каналы : 2 канала
Channel layout : L R
Частота : 44,1 КГц
Битовая глубина : 24 бит
Метод сжатия : Без потерь
Размер потока : 30,0 Мбайт (100%)
Библиотека кодирования : libFLAC 1.1.0 (2003-01-26)
MD5 of the unencoded content : 00000000000000000000000000000000

Общее
Полное имя : O:\Emanuele Uva - Harbor Harmonies (2024)\24 - Serenata Soothing.flac
Формат : FLAC
Формат/Информация : Free Lossless Audio Codec
Размер файла : 21,3 Мбайт
Продолжительность : 2 м. 11 с.
Режим общего битрейта : Переменный
Общий поток : 1 358 Кбит/сек
Альбом : Harbor Harmonies
Альбом/Исполнитель : Emanuele Uva
Трек : Serenata Soothing
Трек/Положение : 24
Исполнитель : Emanuele Uva
Композитор : Emanuele Uva
Жанр : Jazz
Дата записи : 2024 / 2024-01-05
ISRC : ITQ572311391
Авторское право : 2024 MECNA MUSIC ENTERTAINMENT 2023 Carlo Cavalli Music Group
UPC : 5063181713379
MEDIATYPE : album
ITUNESADVISORY : 1

Аудио
Формат : FLAC
Формат/Информация : Free Lossless Audio Codec
Продолжительность : 2 м. 11 с.
Вид битрейта : Переменный
Битрейт : 1 357 Кбит/сек
Каналы : 2 канала
Channel layout : L R
Частота : 44,1 КГц
Битовая глубина : 24 бит
Метод сжатия : Без потерь
Размер потока : 21,2 Мбайт (100%)
Библиотека кодирования : libFLAC 1.1.0 (2003-01-26)
MD5 of the unencoded content : 00000000000000000000000000000000

Общее
Полное имя : O:\Emanuele Uva - Harbor Harmonies (2024)\25 - Pulse of the Beats.flac
Формат : FLAC
Формат/Информация : Free Lossless Audio Codec
Размер файла : 27,3 Мбайт
Продолжительность : 2 м. 46 с.
Режим общего битрейта : Переменный
Общий поток : 1 381 Кбит/сек
Альбом : Harbor Harmonies
Альбом/Исполнитель : Emanuele Uva
Трек : Pulse of the Beats
Трек/Положение : 25
Исполнитель : Emanuele Uva
Композитор : Emanuele Uva
Жанр : Jazz
Дата записи : 2024 / 2024-01-05
ISRC : ITQ572311392
Авторское право : 2024 MECNA MUSIC ENTERTAINMENT 2023 Carlo Cavalli Music Group
UPC : 5063181713379
MEDIATYPE : album
ITUNESADVISORY : 1

Аудио
Формат : FLAC
Формат/Информация : Free Lossless Audio Codec
Продолжительность : 2 м. 46 с.
Вид битрейта : Переменный
Битрейт : 1 381 Кбит/сек
Каналы : 2 канала
Channel layout : L R
Частота : 44,1 КГц
Битовая глубина : 24 бит
Метод сжатия : Без потерь
Размер потока : 27,3 Мбайт (100%)
Библиотека кодирования : libFLAC 1.1.0 (2003-01-26)
MD5 of the unencoded content : 00000000000000000000000000000000

Общее
Полное имя : O:\Emanuele Uva - Harbor Harmonies (2024)\Cover.jpg
Формат : JPEG
Размер файла : 74,2 Кбайт

Изображения
Формат : JPEG
Ширина : 400 пикселей
Высота : 400 пикселей
Цветовое пространство : YUV
Субдискретизация насыщенности : 4:2:0
Битовая глубина : 8 бит
Метод сжатия : С потерями
Размер потока : 74,2 Кбайт (100%)
ColorSpace_ICC : RGB

Общее
Полное имя : O:\Emanuele Uva - Harbor Harmonies (2024)\foo_dr.txt
Размер файла : 2,32 Кбайт
Время раздачи: 24\7 на раздачи больше недели, не возвращаюсь (минимум до появления первых 3-5 скачавших)
[NNMClub.to]_Emanuele Uva - Harbor Harmonies (2024).torrent
 Торрент:   Зарегистрирован
 
Зарегистрируйтесь и скачайте торрент!
13.2 KB

Примагнититься
 Зарегистрирован:   12 Фев 2024 13:13:30
 Размер:   588 MB  (
 Рейтинг:    (Голосов: 7)
 Поблагодарили:   40
 Проверка:   Оформление проверено модератором 12 Фев 2024 13:23:40
Как cкачать  ·  Как раздать  ·  Правильно оформить  ·  Поднять ратио!  
Показать сообщения:   
Начать новую тему   Ответить на тему    Торрент-трекер NNM-Club -> HD Audio и Многоканальная Музыка -> WEB-DL-Audio Часовой пояс: GMT + 3
Страница 1 из 1