Классический форум-трекер
canvas not supported
Нас вместе: 4 232 203

Emilie Schiott (Schiøtt) - Like a Sunday (2024) [FLAC 24/44.1|Lossless|WEB-DL|tracks] <Vocal Jazz>


 
 
RSS
Начать новую тему   Ответить на тему    Торрент-трекер NNM-Club -> HD Audio и Многоканальная Музыка -> WEB-DL-Audio
Автор Сообщение
krochka1 ®
RG Music
Стаж: 3 года 4 мес.
Сообщений: 2401
Ratio: 384.688
Поблагодарили: 95673
100%
Emilie Schiott (Schiøtt) - Like a Sunday (2024)
Жанр: Vocal Jazz
Издание: Etco
Источник: Qobuz
Продолжительность: 00:27:21

Кодек: FLAC 24/44.1
Битрейт: Lossless|WEB-DL
Тип рипа: tracks

Треклист:
01. Like a Sunday (3:04)
02. Live to Learn (3:41)
03. Don't You Read Me Wrong (3:17)
04. Closer to All (3:17)
05. Sonoran Desert (3:42)
06. Will You Join Us (3:35)
07. Power to Choose (3:03)
08. Waiting for You (3:43)
Общее
Полное имя : H:\Emilie Schiøtt - Like a Sunday (2024)\01 - Like a Sunday.flac
Формат : FLAC
Формат/Информация : Free Lossless Audio Codec
Размер файла : 33,4 Мбайт
Продолжительность : 3 м. 4 с.
Режим общего битрейта : Переменный
Общий поток : 1 519 Кбит/сек
Альбом : Like a Sunday
Альбом/Исполнитель : Emilie Schiøtt
Трек : Like a Sunday
Трек/Положение : 1
Исполнитель : Emilie Schiøtt
Композитор : Michael Soltau
Жанр : Jazz
Дата записи : 2024 / 2024-02-16
ISRC : DGA052318058
Авторское право : 2024 ETCO 2024 ETCO
UPC : 3617223551515
MEDIATYPE : album
ITUNESADVISORY : 1

Аудио
Формат : FLAC
Формат/Информация : Free Lossless Audio Codec
Продолжительность : 3 м. 4 с.
Вид битрейта : Переменный
Битрейт : 1 519 Кбит/сек
Каналы : 2 канала
Channel layout : L R
Частота : 44,1 КГц
Битовая глубина : 24 бит
Метод сжатия : Без потерь
Размер потока : 33,3 Мбайт (100%)
Библиотека кодирования : libFLAC 1.1.0 (2003-01-26)
MD5 of the unencoded content : 00000000000000000000000000000000

Общее
Полное имя : H:\Emilie Schiøtt - Like a Sunday (2024)\02 - Live to Learn.flac
Формат : FLAC
Формат/Информация : Free Lossless Audio Codec
Размер файла : 39,8 Мбайт
Продолжительность : 3 м. 40 с.
Режим общего битрейта : Переменный
Общий поток : 1 511 Кбит/сек
Альбом : Like a Sunday
Альбом/Исполнитель : Emilie Schiøtt
Трек : Live to Learn
Трек/Положение : 2
Исполнитель : Emilie Schiøtt
Композитор : Michael Soltau
Жанр : Jazz
Дата записи : 2024 / 2024-02-16
ISRC : DGA052318059
Авторское право : 2024 ETCO 2024 ETCO
UPC : 3617223551515
MEDIATYPE : album
ITUNESADVISORY : 1

Аудио
Формат : FLAC
Формат/Информация : Free Lossless Audio Codec
Продолжительность : 3 м. 40 с.
Вид битрейта : Переменный
Битрейт : 1 511 Кбит/сек
Каналы : 2 канала
Channel layout : L R
Частота : 44,1 КГц
Битовая глубина : 24 бит
Метод сжатия : Без потерь
Размер потока : 39,7 Мбайт (100%)
Библиотека кодирования : libFLAC 1.1.0 (2003-01-26)
MD5 of the unencoded content : 00000000000000000000000000000000

Общее
Полное имя : H:\Emilie Schiøtt - Like a Sunday (2024)\03 - Don't You Read Me Wrong.flac
Формат : FLAC
Формат/Информация : Free Lossless Audio Codec
Размер файла : 35,8 Мбайт
Продолжительность : 3 м. 17 с.
Режим общего битрейта : Переменный
Общий поток : 1 522 Кбит/сек
Альбом : Like a Sunday
Альбом/Исполнитель : Emilie Schiøtt
Трек : Don't You Read Me Wrong
Трек/Положение : 3
Исполнитель : Emilie Schiøtt
Композитор : Michael Soltau
Жанр : Jazz
Дата записи : 2024 / 2024-02-16
ISRC : DGA052318060
Авторское право : 2024 ETCO 2024 ETCO
UPC : 3617223551515
MEDIATYPE : album
ITUNESADVISORY : 1

Аудио
Формат : FLAC
Формат/Информация : Free Lossless Audio Codec
Продолжительность : 3 м. 17 с.
Вид битрейта : Переменный
Битрейт : 1 522 Кбит/сек
Каналы : 2 канала
Channel layout : L R
Частота : 44,1 КГц
Битовая глубина : 24 бит
Метод сжатия : Без потерь
Размер потока : 35,8 Мбайт (100%)
Библиотека кодирования : libFLAC 1.1.0 (2003-01-26)
MD5 of the unencoded content : 00000000000000000000000000000000

Общее
Полное имя : H:\Emilie Schiøtt - Like a Sunday (2024)\04 - Closer to All.flac
Формат : FLAC
Формат/Информация : Free Lossless Audio Codec
Размер файла : 33,6 Мбайт
Продолжительность : 3 м. 16 с.
Режим общего битрейта : Переменный
Общий поток : 1 433 Кбит/сек
Альбом : Like a Sunday
Альбом/Исполнитель : Emilie Schiøtt
Трек : Closer to All
Трек/Положение : 4
Исполнитель : Emilie Schiøtt
Композитор : Michael Soltau
Жанр : Jazz
Дата записи : 2024 / 2024-02-16
ISRC : DGA052318061
Авторское право : 2024 ETCO 2024 ETCO
UPC : 3617223551515
MEDIATYPE : album
ITUNESADVISORY : 1

Аудио
Формат : FLAC
Формат/Информация : Free Lossless Audio Codec
Продолжительность : 3 м. 16 с.
Вид битрейта : Переменный
Битрейт : 1 433 Кбит/сек
Каналы : 2 канала
Channel layout : L R
Частота : 44,1 КГц
Битовая глубина : 24 бит
Метод сжатия : Без потерь
Размер потока : 33,6 Мбайт (100%)
Библиотека кодирования : libFLAC 1.1.0 (2003-01-26)
MD5 of the unencoded content : 00000000000000000000000000000000

Общее
Полное имя : H:\Emilie Schiøtt - Like a Sunday (2024)\05 - Sonoran Desert.flac
Формат : FLAC
Формат/Информация : Free Lossless Audio Codec
Размер файла : 42,0 Мбайт
Продолжительность : 3 м. 41 с.
Режим общего битрейта : Переменный
Общий поток : 1 590 Кбит/сек
Альбом : Like a Sunday
Альбом/Исполнитель : Emilie Schiøtt
Трек : Sonoran Desert
Трек/Положение : 5
Исполнитель : Emilie Schiøtt
Композитор : Michael Soltau
Жанр : Jazz
Дата записи : 2024 / 2024-02-16
ISRC : DGA052318062
Авторское право : 2024 ETCO 2024 ETCO
UPC : 3617223551515
MEDIATYPE : album
ITUNESADVISORY : 1

Аудио
Формат : FLAC
Формат/Информация : Free Lossless Audio Codec
Продолжительность : 3 м. 41 с.
Вид битрейта : Переменный
Битрейт : 1 589 Кбит/сек
Каналы : 2 канала
Channel layout : L R
Частота : 44,1 КГц
Битовая глубина : 24 бит
Метод сжатия : Без потерь
Размер потока : 42,0 Мбайт (100%)
Библиотека кодирования : libFLAC 1.1.0 (2003-01-26)
MD5 of the unencoded content : 00000000000000000000000000000000

Общее
Полное имя : H:\Emilie Schiøtt - Like a Sunday (2024)\06 - Will You Join Us.flac
Формат : FLAC
Формат/Информация : Free Lossless Audio Codec
Размер файла : 40,2 Мбайт
Продолжительность : 3 м. 34 с.
Режим общего битрейта : Переменный
Общий поток : 1 570 Кбит/сек
Альбом : Like a Sunday
Альбом/Исполнитель : Emilie Schiøtt
Трек : Will You Join Us
Трек/Положение : 6
Исполнитель : Emilie Schiøtt
Композитор : Michael Soltau
Жанр : Jazz
Дата записи : 2024 / 2024-02-16
ISRC : DGA052318063
Авторское право : 2024 ETCO 2024 ETCO
UPC : 3617223551515
MEDIATYPE : album
ITUNESADVISORY : 1

Аудио
Формат : FLAC
Формат/Информация : Free Lossless Audio Codec
Продолжительность : 3 м. 34 с.
Вид битрейта : Переменный
Битрейт : 1 570 Кбит/сек
Каналы : 2 канала
Channel layout : L R
Частота : 44,1 КГц
Битовая глубина : 24 бит
Метод сжатия : Без потерь
Размер потока : 40,2 Мбайт (100%)
Библиотека кодирования : libFLAC 1.1.0 (2003-01-26)
MD5 of the unencoded content : 00000000000000000000000000000000

Общее
Полное имя : H:\Emilie Schiøtt - Like a Sunday (2024)\07 - Power to Choose.flac
Формат : FLAC
Формат/Информация : Free Lossless Audio Codec
Размер файла : 32,7 Мбайт
Продолжительность : 3 м. 2 с.
Режим общего битрейта : Переменный
Общий поток : 1 501 Кбит/сек
Альбом : Like a Sunday
Альбом/Исполнитель : Emilie Schiøtt
Трек : Power to Choose
Трек/Положение : 7
Исполнитель : Emilie Schiøtt
Композитор : Michael Soltau
Жанр : Jazz
Дата записи : 2024 / 2024-02-16
ISRC : DGA052318064
Авторское право : 2024 ETCO 2024 ETCO
UPC : 3617223551515
MEDIATYPE : album
ITUNESADVISORY : 1

Аудио
Формат : FLAC
Формат/Информация : Free Lossless Audio Codec
Продолжительность : 3 м. 2 с.
Вид битрейта : Переменный
Битрейт : 1 500 Кбит/сек
Каналы : 2 канала
Channel layout : L R
Частота : 44,1 КГц
Битовая глубина : 24 бит
Метод сжатия : Без потерь
Размер потока : 32,6 Мбайт (100%)
Библиотека кодирования : libFLAC 1.1.0 (2003-01-26)
MD5 of the unencoded content : 00000000000000000000000000000000

Общее
Полное имя : H:\Emilie Schiøtt - Like a Sunday (2024)\08 - Waiting for You.flac
Формат : FLAC
Формат/Информация : Free Lossless Audio Codec
Размер файла : 42,9 Мбайт
Продолжительность : 3 м. 42 с.
Режим общего битрейта : Переменный
Общий поток : 1 616 Кбит/сек
Альбом : Like a Sunday
Альбом/Исполнитель : Emilie Schiøtt
Трек : Waiting for You
Трек/Положение : 8
Исполнитель : Emilie Schiøtt
Композитор : Michael Soltau
Жанр : Jazz
Дата записи : 2024 / 2024-02-16
ISRC : DGA052318065
Авторское право : 2024 ETCO 2024 ETCO
UPC : 3617223551515
MEDIATYPE : album
ITUNESADVISORY : 1

Аудио
Формат : FLAC
Формат/Информация : Free Lossless Audio Codec
Продолжительность : 3 м. 42 с.
Вид битрейта : Переменный
Битрейт : 1 616 Кбит/сек
Каналы : 2 канала
Channel layout : L R
Частота : 44,1 КГц
Битовая глубина : 24 бит
Метод сжатия : Без потерь
Размер потока : 42,9 Мбайт (100%)
Библиотека кодирования : libFLAC 1.1.0 (2003-01-26)
MD5 of the unencoded content : 00000000000000000000000000000000

Общее
Полное имя : H:\Emilie Schiøtt - Like a Sunday (2024)\Cover.jpg
Формат : JPEG
Размер файла : 40,7 Кбайт

Изображения
Формат : JPEG
Ширина : 400 пикселей
Высота : 400 пикселей
Цветовое пространство : YUV
Субдискретизация насыщенности : 4:2:0
Битовая глубина : 8 бит
Метод сжатия : С потерями
Размер потока : 40,7 Кбайт (100%)

Общее
Полное имя : H:\Emilie Schiøtt - Like a Sunday (2024)\foo_dr.txt
Размер файла : 1,22 Кбайт
Время раздачи: 24\7 на раздачи которым больше недели, не возвращаюсь (минимум до появления первых 3-5 скачавших)
[NNMClub.to]_Emilie Schi&#248;tt - Like a Sunday (2024).torrent
 Торрент:   Зарегистрирован
 
Зарегистрируйтесь и скачайте торрент!
12.4 KB

Примагнититься
 Зарегистрирован:   27 Фев 2024 06:56:40
 Размер:   300 MB  (
 Рейтинг:    (Голосов: 1)
 Поблагодарили:   38
 Проверка:   Оформление проверено модератором 27 Фев 2024 10:45:57
Как cкачать  ·  Как раздать  ·  Правильно оформить  ·  Поднять ратио!  
mawanwala
Стаж: 13 лет 1 мес.
Сообщений: 63
Ratio: 5.377
100%
Спасибо
Показать сообщения:   
Начать новую тему   Ответить на тему    Торрент-трекер NNM-Club -> HD Audio и Многоканальная Музыка -> WEB-DL-Audio Часовой пояс: GMT + 3
Страница 1 из 1