Классический форум-трекер
canvas not supported
Нас вместе: 4 232 151

Jazz Music Lovers Club - Music for Sexy Striptease (2024) [FLAC 24/44.1|Lossless|WEB-DL|tracks] <Jazz>


 
 
RSS
Начать новую тему   Ответить на тему    Торрент-трекер NNM-Club -> HD Audio и Многоканальная Музыка -> WEB-DL-Audio
Автор Сообщение
krochka1 ®
RG Music
Стаж: 3 года 4 мес.
Сообщений: 2375
Ratio: 371.716
Поблагодарили: 94153
100%
Jazz Music Lovers Club - Music for Sexy Striptease (2024)
Жанр: Jazz
Издание: Jazzy Workshop
Источник: Qobuz
Продолжительность: 00:54:00

Кодек: FLAC 24/44.1
Битрейт: Lossless|WEB-DL
Тип рипа: tracks

Треклист:
01. Smooth Rose (3:48)
02. Spicy Little Dance (2:49)
03. Pure Feelings (2:49)
04. True Love Has Your Name (3:12)
05. Deep Paradise (3:12)
06. Kiss Me Better (3:12)
07. Golden Sunset (3:12)
08. Private Groove (3:54)
09. Sentimental Lover (3:54)
10. Inside Burning Passion (3:54)
11. Peaceful Story (4:04)
12. Rain Mistery (4:12)
13. The Only One (3:48)
14. Oldies Joy (3:48)
15. Day Dreaming (4:10)
Общее
Полное имя : H:\Jazz Music Lovers Club - Music for Sexy Striptease (2024)\01 - Smooth Rose.flac
Формат : FLAC
Формат/Информация : Free Lossless Audio Codec
Размер файла : 36,0 Мбайт
Продолжительность : 3 м. 48 с.
Режим общего битрейта : Переменный
Общий поток : 1 325 Кбит/сек
Альбом : Music for Sexy Striptease
Альбом/Исполнитель : Jazz Music Lovers Club
Трек : Smooth Rose
Трек/Положение : 01
Исполнитель : Jazz Music Lovers Club
Композитор : Marco Rinaldo
Жанр : Jazz
Дата записи : 2024 / 2024-02-14
ISRC : UKR4Q1977180
Авторское право : 2024 Jazzy Workshop 2024 Jazzy Workshop
UPC : 5904195151231
MEDIATYPE : album
ITUNESADVISORY : 1

Аудио
Формат : FLAC
Формат/Информация : Free Lossless Audio Codec
Продолжительность : 3 м. 48 с.
Вид битрейта : Переменный
Битрейт : 1 325 Кбит/сек
Каналы : 2 канала
Channel layout : L R
Частота : 44,1 КГц
Битовая глубина : 24 бит
Метод сжатия : Без потерь
Размер потока : 36,0 Мбайт (100%)
Библиотека кодирования : libFLAC 1.1.0 (2003-01-26)
MD5 of the unencoded content : 00000000000000000000000000000000

Общее
Полное имя : H:\Jazz Music Lovers Club - Music for Sexy Striptease (2024)\02 - Spicy Little Dance.flac
Формат : FLAC
Формат/Информация : Free Lossless Audio Codec
Размер файла : 29,5 Мбайт
Продолжительность : 2 м. 48 с.
Режим общего битрейта : Переменный
Общий поток : 1 468 Кбит/сек
Альбом : Music for Sexy Striptease
Альбом/Исполнитель : Jazz Music Lovers Club
Трек : Spicy Little Dance
Трек/Положение : 02
Исполнитель : Jazz Music Lovers Club
Композитор : Marco Rinaldo
Жанр : Jazz
Дата записи : 2024 / 2024-02-14
ISRC : UKR4Q1977181
Авторское право : 2024 Jazzy Workshop 2024 Jazzy Workshop
UPC : 5904195151231
MEDIATYPE : album
ITUNESADVISORY : 1

Аудио
Формат : FLAC
Формат/Информация : Free Lossless Audio Codec
Продолжительность : 2 м. 48 с.
Вид битрейта : Переменный
Битрейт : 1 468 Кбит/сек
Каналы : 2 канала
Channel layout : L R
Частота : 44,1 КГц
Битовая глубина : 24 бит
Метод сжатия : Без потерь
Размер потока : 29,5 Мбайт (100%)
Библиотека кодирования : libFLAC 1.1.0 (2003-01-26)
MD5 of the unencoded content : 00000000000000000000000000000000

Общее
Полное имя : H:\Jazz Music Lovers Club - Music for Sexy Striptease (2024)\03 - Pure Feelings.flac
Формат : FLAC
Формат/Информация : Free Lossless Audio Codec
Размер файла : 27,4 Мбайт
Продолжительность : 2 м. 48 с.
Режим общего битрейта : Переменный
Общий поток : 1 361 Кбит/сек
Альбом : Music for Sexy Striptease
Альбом/Исполнитель : Jazz Music Lovers Club
Трек : Pure Feelings
Трек/Положение : 03
Исполнитель : Jazz Music Lovers Club
Композитор : Marco Rinaldo
Жанр : Jazz
Дата записи : 2024 / 2024-02-14
ISRC : UKR4Q1977182
Авторское право : 2024 Jazzy Workshop 2024 Jazzy Workshop
UPC : 5904195151231
MEDIATYPE : album
ITUNESADVISORY : 1

Аудио
Формат : FLAC
Формат/Информация : Free Lossless Audio Codec
Продолжительность : 2 м. 48 с.
Вид битрейта : Переменный
Битрейт : 1 361 Кбит/сек
Каналы : 2 канала
Channel layout : L R
Частота : 44,1 КГц
Битовая глубина : 24 бит
Метод сжатия : Без потерь
Размер потока : 27,3 Мбайт (100%)
Библиотека кодирования : libFLAC 1.1.0 (2003-01-26)
MD5 of the unencoded content : 00000000000000000000000000000000

Общее
Полное имя : H:\Jazz Music Lovers Club - Music for Sexy Striptease (2024)\04 - True Love Has Your Name.flac
Формат : FLAC
Формат/Информация : Free Lossless Audio Codec
Размер файла : 30,6 Мбайт
Продолжительность : 3 м. 12 с.
Режим общего битрейта : Переменный
Общий поток : 1 334 Кбит/сек
Альбом : Music for Sexy Striptease
Альбом/Исполнитель : Jazz Music Lovers Club
Трек : True Love Has Your Name
Трек/Положение : 04
Исполнитель : Jazz Music Lovers Club
Композитор : Marco Rinaldo
Жанр : Jazz
Дата записи : 2024 / 2024-02-14
ISRC : UKR4Q1977183
Авторское право : 2024 Jazzy Workshop 2024 Jazzy Workshop
UPC : 5904195151231
MEDIATYPE : album
ITUNESADVISORY : 1

Аудио
Формат : FLAC
Формат/Информация : Free Lossless Audio Codec
Продолжительность : 3 м. 12 с.
Вид битрейта : Переменный
Битрейт : 1 334 Кбит/сек
Каналы : 2 канала
Channel layout : L R
Частота : 44,1 КГц
Битовая глубина : 24 бит
Метод сжатия : Без потерь
Размер потока : 30,6 Мбайт (100%)
Библиотека кодирования : libFLAC 1.1.0 (2003-01-26)
MD5 of the unencoded content : 00000000000000000000000000000000

Общее
Полное имя : H:\Jazz Music Lovers Club - Music for Sexy Striptease (2024)\05 - Deep Paradise.flac
Формат : FLAC
Формат/Информация : Free Lossless Audio Codec
Размер файла : 30,9 Мбайт
Продолжительность : 3 м. 12 с.
Режим общего битрейта : Переменный
Общий поток : 1 349 Кбит/сек
Альбом : Music for Sexy Striptease
Альбом/Исполнитель : Jazz Music Lovers Club
Трек : Deep Paradise
Трек/Положение : 05
Исполнитель : Jazz Music Lovers Club
Композитор : Marco Rinaldo
Жанр : Jazz
Дата записи : 2024 / 2024-02-14
ISRC : UKR4Q1977184
Авторское право : 2024 Jazzy Workshop 2024 Jazzy Workshop
UPC : 5904195151231
MEDIATYPE : album
ITUNESADVISORY : 1

Аудио
Формат : FLAC
Формат/Информация : Free Lossless Audio Codec
Продолжительность : 3 м. 12 с.
Вид битрейта : Переменный
Битрейт : 1 349 Кбит/сек
Каналы : 2 канала
Channel layout : L R
Частота : 44,1 КГц
Битовая глубина : 24 бит
Метод сжатия : Без потерь
Размер потока : 30,9 Мбайт (100%)
Библиотека кодирования : libFLAC 1.1.0 (2003-01-26)
MD5 of the unencoded content : 00000000000000000000000000000000

Общее
Полное имя : H:\Jazz Music Lovers Club - Music for Sexy Striptease (2024)\06 - Kiss Me Better.flac
Формат : FLAC
Формат/Информация : Free Lossless Audio Codec
Размер файла : 31,5 Мбайт
Продолжительность : 3 м. 12 с.
Режим общего битрейта : Переменный
Общий поток : 1 374 Кбит/сек
Альбом : Music for Sexy Striptease
Альбом/Исполнитель : Jazz Music Lovers Club
Трек : Kiss Me Better
Трек/Положение : 06
Исполнитель : Jazz Music Lovers Club
Композитор : Marco Rinaldo
Жанр : Jazz
Дата записи : 2024 / 2024-02-14
ISRC : UKR4Q1977185
Авторское право : 2024 Jazzy Workshop 2024 Jazzy Workshop
UPC : 5904195151231
MEDIATYPE : album
ITUNESADVISORY : 1

Аудио
Формат : FLAC
Формат/Информация : Free Lossless Audio Codec
Продолжительность : 3 м. 12 с.
Вид битрейта : Переменный
Битрейт : 1 374 Кбит/сек
Каналы : 2 канала
Channel layout : L R
Частота : 44,1 КГц
Битовая глубина : 24 бит
Метод сжатия : Без потерь
Размер потока : 31,5 Мбайт (100%)
Библиотека кодирования : libFLAC 1.1.0 (2003-01-26)
MD5 of the unencoded content : 00000000000000000000000000000000

Общее
Полное имя : H:\Jazz Music Lovers Club - Music for Sexy Striptease (2024)\07 - Golden Sunset.flac
Формат : FLAC
Формат/Информация : Free Lossless Audio Codec
Размер файла : 33,0 Мбайт
Продолжительность : 3 м. 12 с.
Режим общего битрейта : Переменный
Общий поток : 1 440 Кбит/сек
Альбом : Music for Sexy Striptease
Альбом/Исполнитель : Jazz Music Lovers Club
Трек : Golden Sunset
Трек/Положение : 07
Исполнитель : Jazz Music Lovers Club
Композитор : Marco Rinaldo
Жанр : Jazz
Дата записи : 2024 / 2024-02-14
ISRC : UKR4Q1977186
Авторское право : 2024 Jazzy Workshop 2024 Jazzy Workshop
UPC : 5904195151231
MEDIATYPE : album
ITUNESADVISORY : 1

Аудио
Формат : FLAC
Формат/Информация : Free Lossless Audio Codec
Продолжительность : 3 м. 12 с.
Вид битрейта : Переменный
Битрейт : 1 440 Кбит/сек
Каналы : 2 канала
Channel layout : L R
Частота : 44,1 КГц
Битовая глубина : 24 бит
Метод сжатия : Без потерь
Размер потока : 33,0 Мбайт (100%)
Библиотека кодирования : libFLAC 1.1.0 (2003-01-26)
MD5 of the unencoded content : 00000000000000000000000000000000

Общее
Полное имя : H:\Jazz Music Lovers Club - Music for Sexy Striptease (2024)\08 - Private Groove.flac
Формат : FLAC
Формат/Информация : Free Lossless Audio Codec
Размер файла : 32,8 Мбайт
Продолжительность : 3 м. 54 с.
Режим общего битрейта : Переменный
Общий поток : 1 176 Кбит/сек
Альбом : Music for Sexy Striptease
Альбом/Исполнитель : Jazz Music Lovers Club
Трек : Private Groove
Трек/Положение : 08
Исполнитель : Jazz Music Lovers Club
Композитор : Marco Rinaldo
Жанр : Jazz
Дата записи : 2024 / 2024-02-14
ISRC : UKR4Q1977187
Авторское право : 2024 Jazzy Workshop 2024 Jazzy Workshop
UPC : 5904195151231
MEDIATYPE : album
ITUNESADVISORY : 1

Аудио
Формат : FLAC
Формат/Информация : Free Lossless Audio Codec
Продолжительность : 3 м. 54 с.
Вид битрейта : Переменный
Битрейт : 1 176 Кбит/сек
Каналы : 2 канала
Channel layout : L R
Частота : 44,1 КГц
Битовая глубина : 24 бит
Метод сжатия : Без потерь
Размер потока : 32,8 Мбайт (100%)
Библиотека кодирования : libFLAC 1.1.0 (2003-01-26)
MD5 of the unencoded content : 00000000000000000000000000000000

Общее
Полное имя : H:\Jazz Music Lovers Club - Music for Sexy Striptease (2024)\09 - Sentimental Lover.flac
Формат : FLAC
Формат/Информация : Free Lossless Audio Codec
Размер файла : 37,8 Мбайт
Продолжительность : 3 м. 54 с.
Режим общего битрейта : Переменный
Общий поток : 1 354 Кбит/сек
Альбом : Music for Sexy Striptease
Альбом/Исполнитель : Jazz Music Lovers Club
Трек : Sentimental Lover
Трек/Положение : 09
Исполнитель : Jazz Music Lovers Club
Композитор : Marco Rinaldo
Жанр : Jazz
Дата записи : 2024 / 2024-02-14
ISRC : UKR4Q1977188
Авторское право : 2024 Jazzy Workshop 2024 Jazzy Workshop
UPC : 5904195151231
MEDIATYPE : album
ITUNESADVISORY : 1

Аудио
Формат : FLAC
Формат/Информация : Free Lossless Audio Codec
Продолжительность : 3 м. 54 с.
Вид битрейта : Переменный
Битрейт : 1 354 Кбит/сек
Каналы : 2 канала
Channel layout : L R
Частота : 44,1 КГц
Битовая глубина : 24 бит
Метод сжатия : Без потерь
Размер потока : 37,8 Мбайт (100%)
Библиотека кодирования : libFLAC 1.1.0 (2003-01-26)
MD5 of the unencoded content : 00000000000000000000000000000000

Общее
Полное имя : H:\Jazz Music Lovers Club - Music for Sexy Striptease (2024)\10 - Inside Burning Passion.flac
Формат : FLAC
Формат/Информация : Free Lossless Audio Codec
Размер файла : 37,9 Мбайт
Продолжительность : 3 м. 54 с.
Режим общего битрейта : Переменный
Общий поток : 1 359 Кбит/сек
Альбом : Music for Sexy Striptease
Альбом/Исполнитель : Jazz Music Lovers Club
Трек : Inside Burning Passion
Трек/Положение : 10
Исполнитель : Jazz Music Lovers Club
Композитор : Marco Rinaldo
Жанр : Jazz
Дата записи : 2024 / 2024-02-14
ISRC : UKR4Q1977189
Авторское право : 2024 Jazzy Workshop 2024 Jazzy Workshop
UPC : 5904195151231
MEDIATYPE : album
ITUNESADVISORY : 1

Аудио
Формат : FLAC
Формат/Информация : Free Lossless Audio Codec
Продолжительность : 3 м. 54 с.
Вид битрейта : Переменный
Битрейт : 1 359 Кбит/сек
Каналы : 2 канала
Channel layout : L R
Частота : 44,1 КГц
Битовая глубина : 24 бит
Метод сжатия : Без потерь
Размер потока : 37,9 Мбайт (100%)
Библиотека кодирования : libFLAC 1.1.0 (2003-01-26)
MD5 of the unencoded content : 00000000000000000000000000000000

Общее
Полное имя : H:\Jazz Music Lovers Club - Music for Sexy Striptease (2024)\11 - Peaceful Story.flac
Формат : FLAC
Формат/Информация : Free Lossless Audio Codec
Размер файла : 35,1 Мбайт
Продолжительность : 4 м. 3 с.
Режим общего битрейта : Переменный
Общий поток : 1 207 Кбит/сек
Альбом : Music for Sexy Striptease
Альбом/Исполнитель : Jazz Music Lovers Club
Трек : Peaceful Story
Трек/Положение : 11
Исполнитель : Jazz Music Lovers Club
Композитор : Marco Rinaldo
Жанр : Jazz
Дата записи : 2024 / 2024-02-14
ISRC : UKR4Q1977190
Авторское право : 2024 Jazzy Workshop 2024 Jazzy Workshop
UPC : 5904195151231
MEDIATYPE : album
ITUNESADVISORY : 1

Аудио
Формат : FLAC
Формат/Информация : Free Lossless Audio Codec
Продолжительность : 4 м. 3 с.
Вид битрейта : Переменный
Битрейт : 1 206 Кбит/сек
Каналы : 2 канала
Channel layout : L R
Частота : 44,1 КГц
Битовая глубина : 24 бит
Метод сжатия : Без потерь
Размер потока : 35,1 Мбайт (100%)
Библиотека кодирования : libFLAC 1.1.0 (2003-01-26)
MD5 of the unencoded content : 00000000000000000000000000000000

Общее
Полное имя : H:\Jazz Music Lovers Club - Music for Sexy Striptease (2024)\12 - Rain Mistery.flac
Формат : FLAC
Формат/Информация : Free Lossless Audio Codec
Размер файла : 38,0 Мбайт
Продолжительность : 4 м. 11 с.
Режим общего битрейта : Переменный
Общий поток : 1 267 Кбит/сек
Альбом : Music for Sexy Striptease
Альбом/Исполнитель : Jazz Music Lovers Club
Трек : Rain Mistery
Трек/Положение : 12
Исполнитель : Jazz Music Lovers Club
Композитор : Marco Rinaldo
Жанр : Jazz
Дата записи : 2024 / 2024-02-14
ISRC : UKR4Q1977191
Авторское право : 2024 Jazzy Workshop 2024 Jazzy Workshop
UPC : 5904195151231
MEDIATYPE : album
ITUNESADVISORY : 1

Аудио
Формат : FLAC
Формат/Информация : Free Lossless Audio Codec
Продолжительность : 4 м. 11 с.
Вид битрейта : Переменный
Битрейт : 1 267 Кбит/сек
Каналы : 2 канала
Channel layout : L R
Частота : 44,1 КГц
Битовая глубина : 24 бит
Метод сжатия : Без потерь
Размер потока : 38,0 Мбайт (100%)
Библиотека кодирования : libFLAC 1.1.0 (2003-01-26)
MD5 of the unencoded content : 00000000000000000000000000000000

Общее
Полное имя : H:\Jazz Music Lovers Club - Music for Sexy Striptease (2024)\13 - The Only One.flac
Формат : FLAC
Формат/Информация : Free Lossless Audio Codec
Размер файла : 37,3 Мбайт
Продолжительность : 3 м. 48 с.
Режим общего битрейта : Переменный
Общий поток : 1 370 Кбит/сек
Альбом : Music for Sexy Striptease
Альбом/Исполнитель : Jazz Music Lovers Club
Трек : The Only One
Трек/Положение : 13
Исполнитель : Jazz Music Lovers Club
Композитор : Marco Rinaldo
Жанр : Jazz
Дата записи : 2024 / 2024-02-14
ISRC : UKR4Q1977192
Авторское право : 2024 Jazzy Workshop 2024 Jazzy Workshop
UPC : 5904195151231
MEDIATYPE : album
ITUNESADVISORY : 1

Аудио
Формат : FLAC
Формат/Информация : Free Lossless Audio Codec
Продолжительность : 3 м. 48 с.
Вид битрейта : Переменный
Битрейт : 1 370 Кбит/сек
Каналы : 2 канала
Channel layout : L R
Частота : 44,1 КГц
Битовая глубина : 24 бит
Метод сжатия : Без потерь
Размер потока : 37,3 Мбайт (100%)
Библиотека кодирования : libFLAC 1.1.0 (2003-01-26)
MD5 of the unencoded content : 00000000000000000000000000000000

Общее
Полное имя : H:\Jazz Music Lovers Club - Music for Sexy Striptease (2024)\14 - Oldies Joy.flac
Формат : FLAC
Формат/Информация : Free Lossless Audio Codec
Размер файла : 37,1 Мбайт
Продолжительность : 3 м. 48 с.
Режим общего битрейта : Переменный
Общий поток : 1 363 Кбит/сек
Альбом : Music for Sexy Striptease
Альбом/Исполнитель : Jazz Music Lovers Club
Трек : Oldies Joy
Трек/Положение : 14
Исполнитель : Jazz Music Lovers Club
Композитор : Marco Rinaldo
Жанр : Jazz
Дата записи : 2024 / 2024-02-14
ISRC : UKR4Q1977193
Авторское право : 2024 Jazzy Workshop 2024 Jazzy Workshop
UPC : 5904195151231
MEDIATYPE : album
ITUNESADVISORY : 1

Аудио
Формат : FLAC
Формат/Информация : Free Lossless Audio Codec
Продолжительность : 3 м. 48 с.
Вид битрейта : Переменный
Битрейт : 1 363 Кбит/сек
Каналы : 2 канала
Channel layout : L R
Частота : 44,1 КГц
Битовая глубина : 24 бит
Метод сжатия : Без потерь
Размер потока : 37,0 Мбайт (100%)
Библиотека кодирования : libFLAC 1.1.0 (2003-01-26)
MD5 of the unencoded content : 00000000000000000000000000000000

Общее
Полное имя : H:\Jazz Music Lovers Club - Music for Sexy Striptease (2024)\15 - Day Dreaming.flac
Формат : FLAC
Формат/Информация : Free Lossless Audio Codec
Размер файла : 39,8 Мбайт
Продолжительность : 4 м. 9 с.
Режим общего битрейта : Переменный
Общий поток : 1 337 Кбит/сек
Альбом : Music for Sexy Striptease
Альбом/Исполнитель : Jazz Music Lovers Club
Трек : Day Dreaming
Трек/Положение : 15
Исполнитель : Jazz Music Lovers Club
Композитор : Marco Rinaldo
Жанр : Jazz
Дата записи : 2024 / 2024-02-14
ISRC : UKR4Q1977194
Авторское право : 2024 Jazzy Workshop 2024 Jazzy Workshop
UPC : 5904195151231
MEDIATYPE : album
ITUNESADVISORY : 1

Аудио
Формат : FLAC
Формат/Информация : Free Lossless Audio Codec
Продолжительность : 4 м. 9 с.
Вид битрейта : Переменный
Битрейт : 1 337 Кбит/сек
Каналы : 2 канала
Channel layout : L R
Частота : 44,1 КГц
Битовая глубина : 24 бит
Метод сжатия : Без потерь
Размер потока : 39,8 Мбайт (100%)
Библиотека кодирования : libFLAC 1.1.0 (2003-01-26)
MD5 of the unencoded content : 00000000000000000000000000000000

Общее
Полное имя : H:\Jazz Music Lovers Club - Music for Sexy Striptease (2024)\Cover.jpg
Формат : JPEG
Размер файла : 34,0 Кбайт

Изображения
Формат : JPEG
Ширина : 400 пикселей
Высота : 400 пикселей
Цветовое пространство : YUV
Субдискретизация насыщенности : 4:2:0
Битовая глубина : 8 бит
Метод сжатия : С потерями
Размер потока : 34,0 Кбайт (100%)

Общее
Полное имя : H:\Jazz Music Lovers Club - Music for Sexy Striptease (2024)\foo_dr.txt
Размер файла : 1,65 Кбайт
Время раздачи: 24\7 на раздачи которым больше недели, не возвращаюсь (минимум до появления первых 3-5 скачавших)
[NNMClub.to]_Jazz Music Lovers Club - Music for Sexy Striptease (2024).torrent
 Торрент:   Зарегистрирован
 
Зарегистрируйтесь и скачайте торрент!
11.1 KB

Примагнититься
 Зарегистрирован:   27 Фев 2024 07:06:35
 Размер:   515 MB  (
 Рейтинг:    (Голосов: 7)
 Поблагодарили:   52
 Проверка:   Оформление проверено модератором 27 Фев 2024 10:45:41
Как cкачать  ·  Как раздать  ·  Правильно оформить  ·  Поднять ратио!  
Показать сообщения:   
Начать новую тему   Ответить на тему    Торрент-трекер NNM-Club -> HD Audio и Многоканальная Музыка -> WEB-DL-Audio Часовой пояс: GMT + 3
Страница 1 из 1