Классический форум-трекер
canvas not supported
Нас вместе: 4 232 209

Jazz Sax Lounge Collection, Smooth Jazz Sax Instrumentals - Summer Saxophone Relaxation 2023 (2024) [FLAC 24/44.1|Lossless|WEB-DL|tracks] <Jazz>


 
 
RSS
Начать новую тему   Ответить на тему    Торрент-трекер NNM-Club -> HD Audio и Многоканальная Музыка -> WEB-DL-Audio
Автор Сообщение
krochka1 ®
RG Music
Стаж: 3 года 4 мес.
Сообщений: 2401
Ratio: 384.716
Поблагодарили: 95676
100%
Jazz Sax Lounge Collection, Smooth Jazz Sax Instrumentals - Summer Saxophone Relaxation 2023 (2024)
Жанр: Jazz
Издание: Jammed Jazz
Источник: Qobuz
Продолжительность: 00:54:46

Кодек: FLAC 24/44.1
Битрейт: Lossless|WEB-DL
Тип рипа: tracks

Треклист:
01. It’s a Break Time (3:19)
02. Quiet Nights of Quiet Stars (3:27)
03. Saxophone Chill (3:54)
04. Afternoon Coffee (4:30)
05. Lazy Daytime (4:44)
06. Desire of Freedom (3:30)
07. Island of Happiness (3:43)
08. Time Together (4:35)
09. Sunny Coffee (3:10)
10. Cozy NYC Apartment (3:14)
11. Sunny Sky (3:11)
12. Delicate and Slow Jazz (2:56)
13. Feel It (3:30)
14. Magical Night (4:00)
15. Give Me the Nights (3:02)
Общее
Полное имя : H:\Jazz Sax Lounge Collection, Smooth Jazz Sax Instrumentals - Summer Saxophone Relaxation 2023 (2024)\01 - It’s a Break Time.flac
Формат : FLAC
Формат/Информация : Free Lossless Audio Codec
Размер файла : 33,9 Мбайт
Продолжительность : 3 м. 18 с.
Режим общего битрейта : Переменный
Общий поток : 1 430 Кбит/сек
Альбом : Summer Saxophone Relaxation 2023
Альбом/Исполнитель : Jazz Sax Lounge Collection
Трек : It’s a Break Time
Трек/Положение : 01
Исполнитель : Jazz Sax Lounge Collection
Композитор : Marco Rinaldo
Жанр : Jazz
Дата записи : 2024 / 2024-02-09
ISRC : UKR4Q1968240
Авторское право : 2023 Jammed Jazz 2023 Jammed Jazz
UPC : 5904195895296
MEDIATYPE : album
ITUNESADVISORY : 1

Аудио
Формат : FLAC
Формат/Информация : Free Lossless Audio Codec
Продолжительность : 3 м. 18 с.
Вид битрейта : Переменный
Битрейт : 1 430 Кбит/сек
Каналы : 2 канала
Channel layout : L R
Частота : 44,1 КГц
Битовая глубина : 24 бит
Метод сжатия : Без потерь
Размер потока : 33,9 Мбайт (100%)
Библиотека кодирования : libFLAC 1.1.0 (2003-01-26)
MD5 of the unencoded content : 00000000000000000000000000000000

Общее
Полное имя : H:\Jazz Sax Lounge Collection, Smooth Jazz Sax Instrumentals - Summer Saxophone Relaxation 2023 (2024)\02 - Quiet Nights of Quiet Stars.flac
Формат : FLAC
Формат/Информация : Free Lossless Audio Codec
Размер файла : 34,4 Мбайт
Продолжительность : 3 м. 27 с.
Режим общего битрейта : Переменный
Общий поток : 1 394 Кбит/сек
Альбом : Summer Saxophone Relaxation 2023
Альбом/Исполнитель : Jazz Sax Lounge Collection
Трек : Quiet Nights of Quiet Stars
Трек/Положение : 02
Исполнитель : Jazz Sax Lounge Collection
Композитор : Marco Rinaldo
Жанр : Jazz
Дата записи : 2024 / 2024-02-09
ISRC : UKR4Q1968241
Авторское право : 2023 Jammed Jazz 2023 Jammed Jazz
UPC : 5904195895296
MEDIATYPE : album
ITUNESADVISORY : 1

Аудио
Формат : FLAC
Формат/Информация : Free Lossless Audio Codec
Продолжительность : 3 м. 27 с.
Вид битрейта : Переменный
Битрейт : 1 394 Кбит/сек
Каналы : 2 канала
Channel layout : L R
Частота : 44,1 КГц
Битовая глубина : 24 бит
Метод сжатия : Без потерь
Размер потока : 34,4 Мбайт (100%)
Библиотека кодирования : libFLAC 1.1.0 (2003-01-26)
MD5 of the unencoded content : 00000000000000000000000000000000

Общее
Полное имя : H:\Jazz Sax Lounge Collection, Smooth Jazz Sax Instrumentals - Summer Saxophone Relaxation 2023 (2024)\03 - Saxophone Chill.flac
Формат : FLAC
Формат/Информация : Free Lossless Audio Codec
Размер файла : 40,7 Мбайт
Продолжительность : 3 м. 54 с.
Режим общего битрейта : Переменный
Общий поток : 1 459 Кбит/сек
Альбом : Summer Saxophone Relaxation 2023
Альбом/Исполнитель : Jazz Sax Lounge Collection
Трек : Saxophone Chill
Трек/Положение : 03
Исполнитель : Jazz Sax Lounge Collection
Композитор : Marco Rinaldo
Жанр : Jazz
Дата записи : 2024 / 2024-02-09
ISRC : UKR4Q1968242
Авторское право : 2023 Jammed Jazz 2023 Jammed Jazz
UPC : 5904195895296
MEDIATYPE : album
ITUNESADVISORY : 1

Аудио
Формат : FLAC
Формат/Информация : Free Lossless Audio Codec
Продолжительность : 3 м. 54 с.
Вид битрейта : Переменный
Битрейт : 1 459 Кбит/сек
Каналы : 2 канала
Channel layout : L R
Частота : 44,1 КГц
Битовая глубина : 24 бит
Метод сжатия : Без потерь
Размер потока : 40,7 Мбайт (100%)
Библиотека кодирования : libFLAC 1.1.0 (2003-01-26)
MD5 of the unencoded content : 00000000000000000000000000000000

Общее
Полное имя : H:\Jazz Sax Lounge Collection, Smooth Jazz Sax Instrumentals - Summer Saxophone Relaxation 2023 (2024)\04 - Afternoon Coffee.flac
Формат : FLAC
Формат/Информация : Free Lossless Audio Codec
Размер файла : 43,9 Мбайт
Продолжительность : 4 м. 30 с.
Режим общего битрейта : Переменный
Общий поток : 1 364 Кбит/сек
Альбом : Summer Saxophone Relaxation 2023
Альбом/Исполнитель : Jazz Sax Lounge Collection
Трек : Afternoon Coffee
Трек/Положение : 04
Исполнитель : Jazz Sax Lounge Collection
Композитор : Marco Rinaldo
Жанр : Jazz
Дата записи : 2024 / 2024-02-09
ISRC : UKR4Q1968243
Авторское право : 2023 Jammed Jazz 2023 Jammed Jazz
UPC : 5904195895296
MEDIATYPE : album
ITUNESADVISORY : 1

Аудио
Формат : FLAC
Формат/Информация : Free Lossless Audio Codec
Продолжительность : 4 м. 30 с.
Вид битрейта : Переменный
Битрейт : 1 364 Кбит/сек
Каналы : 2 канала
Channel layout : L R
Частота : 44,1 КГц
Битовая глубина : 24 бит
Метод сжатия : Без потерь
Размер потока : 43,9 Мбайт (100%)
Библиотека кодирования : libFLAC 1.1.0 (2003-01-26)
MD5 of the unencoded content : 00000000000000000000000000000000

Общее
Полное имя : H:\Jazz Sax Lounge Collection, Smooth Jazz Sax Instrumentals - Summer Saxophone Relaxation 2023 (2024)\05 - Lazy Daytime.flac
Формат : FLAC
Формат/Информация : Free Lossless Audio Codec
Размер файла : 46,9 Мбайт
Продолжительность : 4 м. 44 с.
Режим общего битрейта : Переменный
Общий поток : 1 384 Кбит/сек
Альбом : Summer Saxophone Relaxation 2023
Альбом/Исполнитель : Jazz Sax Lounge Collection
Трек : Lazy Daytime
Трек/Положение : 05
Исполнитель : Jazz Sax Lounge Collection
Композитор : Marco Rinaldo
Жанр : Jazz
Дата записи : 2024 / 2024-02-09
ISRC : UKR4Q1968244
Авторское право : 2023 Jammed Jazz 2023 Jammed Jazz
UPC : 5904195895296
MEDIATYPE : album
ITUNESADVISORY : 1

Аудио
Формат : FLAC
Формат/Информация : Free Lossless Audio Codec
Продолжительность : 4 м. 44 с.
Вид битрейта : Переменный
Битрейт : 1 384 Кбит/сек
Каналы : 2 канала
Channel layout : L R
Частота : 44,1 КГц
Битовая глубина : 24 бит
Метод сжатия : Без потерь
Размер потока : 46,9 Мбайт (100%)
Библиотека кодирования : libFLAC 1.1.0 (2003-01-26)
MD5 of the unencoded content : 00000000000000000000000000000000

Общее
Полное имя : H:\Jazz Sax Lounge Collection, Smooth Jazz Sax Instrumentals - Summer Saxophone Relaxation 2023 (2024)\06 - Desire of Freedom.flac
Формат : FLAC
Формат/Информация : Free Lossless Audio Codec
Размер файла : 35,2 Мбайт
Продолжительность : 3 м. 30 с.
Режим общего битрейта : Переменный
Общий поток : 1 405 Кбит/сек
Альбом : Summer Saxophone Relaxation 2023
Альбом/Исполнитель : Jazz Sax Lounge Collection
Трек : Desire of Freedom
Трек/Положение : 06
Исполнитель : Jazz Sax Lounge Collection
Композитор : Marco Rinaldo
Жанр : Jazz
Дата записи : 2024 / 2024-02-09
ISRC : UKR4Q1968245
Авторское право : 2023 Jammed Jazz 2023 Jammed Jazz
UPC : 5904195895296
MEDIATYPE : album
ITUNESADVISORY : 1

Аудио
Формат : FLAC
Формат/Информация : Free Lossless Audio Codec
Продолжительность : 3 м. 30 с.
Вид битрейта : Переменный
Битрейт : 1 405 Кбит/сек
Каналы : 2 канала
Channel layout : L R
Частота : 44,1 КГц
Битовая глубина : 24 бит
Метод сжатия : Без потерь
Размер потока : 35,2 Мбайт (100%)
Библиотека кодирования : libFLAC 1.1.0 (2003-01-26)
MD5 of the unencoded content : 00000000000000000000000000000000

Общее
Полное имя : H:\Jazz Sax Lounge Collection, Smooth Jazz Sax Instrumentals - Summer Saxophone Relaxation 2023 (2024)\07 - Island of Happiness.flac
Формат : FLAC
Формат/Информация : Free Lossless Audio Codec
Размер файла : 37,8 Мбайт
Продолжительность : 3 м. 43 с.
Режим общего битрейта : Переменный
Общий поток : 1 419 Кбит/сек
Альбом : Summer Saxophone Relaxation 2023
Альбом/Исполнитель : Jazz Sax Lounge Collection
Трек : Island of Happiness
Трек/Положение : 07
Исполнитель : Jazz Sax Lounge Collection
Композитор : Marco Rinaldo
Жанр : Jazz
Дата записи : 2024 / 2024-02-09
ISRC : UKR4Q1968246
Авторское право : 2023 Jammed Jazz 2023 Jammed Jazz
UPC : 5904195895296
MEDIATYPE : album
ITUNESADVISORY : 1

Аудио
Формат : FLAC
Формат/Информация : Free Lossless Audio Codec
Продолжительность : 3 м. 43 с.
Вид битрейта : Переменный
Битрейт : 1 418 Кбит/сек
Каналы : 2 канала
Channel layout : L R
Частота : 44,1 КГц
Битовая глубина : 24 бит
Метод сжатия : Без потерь
Размер потока : 37,8 Мбайт (100%)
Библиотека кодирования : libFLAC 1.1.0 (2003-01-26)
MD5 of the unencoded content : 00000000000000000000000000000000

Общее
Полное имя : H:\Jazz Sax Lounge Collection, Smooth Jazz Sax Instrumentals - Summer Saxophone Relaxation 2023 (2024)\08 - Time Together.flac
Формат : FLAC
Формат/Информация : Free Lossless Audio Codec
Размер файла : 46,3 Мбайт
Продолжительность : 4 м. 34 с.
Режим общего битрейта : Переменный
Общий поток : 1 413 Кбит/сек
Альбом : Summer Saxophone Relaxation 2023
Альбом/Исполнитель : Jazz Sax Lounge Collection
Трек : Time Together
Трек/Положение : 08
Исполнитель : Jazz Sax Lounge Collection
Композитор : Marco Rinaldo
Жанр : Jazz
Дата записи : 2024 / 2024-02-09
ISRC : UKR4Q1968247
Авторское право : 2023 Jammed Jazz 2023 Jammed Jazz
UPC : 5904195895296
MEDIATYPE : album
ITUNESADVISORY : 1

Аудио
Формат : FLAC
Формат/Информация : Free Lossless Audio Codec
Продолжительность : 4 м. 34 с.
Вид битрейта : Переменный
Битрейт : 1 413 Кбит/сек
Каналы : 2 канала
Channel layout : L R
Частота : 44,1 КГц
Битовая глубина : 24 бит
Метод сжатия : Без потерь
Размер потока : 46,3 Мбайт (100%)
Библиотека кодирования : libFLAC 1.1.0 (2003-01-26)
MD5 of the unencoded content : 00000000000000000000000000000000

Общее
Полное имя : H:\Jazz Sax Lounge Collection, Smooth Jazz Sax Instrumentals - Summer Saxophone Relaxation 2023 (2024)\09 - Sunny Coffee.flac
Формат : FLAC
Формат/Информация : Free Lossless Audio Codec
Размер файла : 33,0 Мбайт
Продолжительность : 3 м. 10 с.
Режим общего битрейта : Переменный
Общий поток : 1 454 Кбит/сек
Альбом : Summer Saxophone Relaxation 2023
Альбом/Исполнитель : Jazz Sax Lounge Collection
Трек : Sunny Coffee
Трек/Положение : 09
Исполнитель : Jazz Sax Lounge Collection
Композитор : Marco Rinaldo
Жанр : Jazz
Дата записи : 2024 / 2024-02-09
ISRC : UKR4Q1968248
Авторское право : 2023 Jammed Jazz 2023 Jammed Jazz
UPC : 5904195895296
MEDIATYPE : album
ITUNESADVISORY : 1

Аудио
Формат : FLAC
Формат/Информация : Free Lossless Audio Codec
Продолжительность : 3 м. 10 с.
Вид битрейта : Переменный
Битрейт : 1 454 Кбит/сек
Каналы : 2 канала
Channel layout : L R
Частота : 44,1 КГц
Битовая глубина : 24 бит
Метод сжатия : Без потерь
Размер потока : 33,0 Мбайт (100%)
Библиотека кодирования : libFLAC 1.1.0 (2003-01-26)
MD5 of the unencoded content : 00000000000000000000000000000000

Общее
Полное имя : H:\Jazz Sax Lounge Collection, Smooth Jazz Sax Instrumentals - Summer Saxophone Relaxation 2023 (2024)\10 - Cozy NYC Apartment.flac
Формат : FLAC
Формат/Информация : Free Lossless Audio Codec
Размер файла : 33,8 Мбайт
Продолжительность : 3 м. 13 с.
Режим общего битрейта : Переменный
Общий поток : 1 462 Кбит/сек
Альбом : Summer Saxophone Relaxation 2023
Альбом/Исполнитель : Jazz Sax Lounge Collection
Трек : Cozy NYC Apartment
Трек/Положение : 10
Исполнитель : Jazz Sax Lounge Collection
Композитор : Marco Rinaldo
Жанр : Jazz
Дата записи : 2024 / 2024-02-09
ISRC : UKR4Q1968249
Авторское право : 2023 Jammed Jazz 2023 Jammed Jazz
UPC : 5904195895296
MEDIATYPE : album
ITUNESADVISORY : 1

Аудио
Формат : FLAC
Формат/Информация : Free Lossless Audio Codec
Продолжительность : 3 м. 13 с.
Вид битрейта : Переменный
Битрейт : 1 462 Кбит/сек
Каналы : 2 канала
Channel layout : L R
Частота : 44,1 КГц
Битовая глубина : 24 бит
Метод сжатия : Без потерь
Размер потока : 33,8 Мбайт (100%)
Библиотека кодирования : libFLAC 1.1.0 (2003-01-26)
MD5 of the unencoded content : 00000000000000000000000000000000

Общее
Полное имя : H:\Jazz Sax Lounge Collection, Smooth Jazz Sax Instrumentals - Summer Saxophone Relaxation 2023 (2024)\11 - Sunny Sky.flac
Формат : FLAC
Формат/Информация : Free Lossless Audio Codec
Размер файла : 33,5 Мбайт
Продолжительность : 3 м. 10 с.
Режим общего битрейта : Переменный
Общий поток : 1 475 Кбит/сек
Альбом : Summer Saxophone Relaxation 2023
Альбом/Исполнитель : Jazz Sax Lounge Collection
Трек : Sunny Sky
Трек/Положение : 11
Исполнитель : Jazz Sax Lounge Collection
Композитор : Marco Rinaldo
Жанр : Jazz
Дата записи : 2024 / 2024-02-09
ISRC : UKR4Q1968250
Авторское право : 2023 Jammed Jazz 2023 Jammed Jazz
UPC : 5904195895296
MEDIATYPE : album
ITUNESADVISORY : 1

Аудио
Формат : FLAC
Формат/Информация : Free Lossless Audio Codec
Продолжительность : 3 м. 10 с.
Вид битрейта : Переменный
Битрейт : 1 474 Кбит/сек
Каналы : 2 канала
Channel layout : L R
Частота : 44,1 КГц
Битовая глубина : 24 бит
Метод сжатия : Без потерь
Размер потока : 33,5 Мбайт (100%)
Библиотека кодирования : libFLAC 1.1.0 (2003-01-26)
MD5 of the unencoded content : 00000000000000000000000000000000

Общее
Полное имя : H:\Jazz Sax Lounge Collection, Smooth Jazz Sax Instrumentals - Summer Saxophone Relaxation 2023 (2024)\12 - Delicate and Slow Jazz.flac
Формат : FLAC
Формат/Информация : Free Lossless Audio Codec
Размер файла : 31,3 Мбайт
Продолжительность : 2 м. 55 с.
Режим общего битрейта : Переменный
Общий поток : 1 493 Кбит/сек
Альбом : Summer Saxophone Relaxation 2023
Альбом/Исполнитель : Jazz Sax Lounge Collection
Трек : Delicate and Slow Jazz
Трек/Положение : 12
Исполнитель : Jazz Sax Lounge Collection
Композитор : Marco Rinaldo
Жанр : Jazz
Дата записи : 2024 / 2024-02-09
ISRC : UKR4Q1968251
Авторское право : 2023 Jammed Jazz 2023 Jammed Jazz
UPC : 5904195895296
MEDIATYPE : album
ITUNESADVISORY : 1

Аудио
Формат : FLAC
Формат/Информация : Free Lossless Audio Codec
Продолжительность : 2 м. 55 с.
Вид битрейта : Переменный
Битрейт : 1 493 Кбит/сек
Каналы : 2 канала
Channel layout : L R
Частота : 44,1 КГц
Битовая глубина : 24 бит
Метод сжатия : Без потерь
Размер потока : 31,3 Мбайт (100%)
Библиотека кодирования : libFLAC 1.1.0 (2003-01-26)
MD5 of the unencoded content : 00000000000000000000000000000000

Общее
Полное имя : H:\Jazz Sax Lounge Collection, Smooth Jazz Sax Instrumentals - Summer Saxophone Relaxation 2023 (2024)\13 - Feel It.flac
Формат : FLAC
Формат/Информация : Free Lossless Audio Codec
Размер файла : 36,5 Мбайт
Продолжительность : 3 м. 30 с.
Режим общего битрейта : Переменный
Общий поток : 1 456 Кбит/сек
Альбом : Summer Saxophone Relaxation 2023
Альбом/Исполнитель : Jazz Sax Lounge Collection
Трек : Feel It
Трек/Положение : 13
Исполнитель : Jazz Sax Lounge Collection
Композитор : Marco Rinaldo
Жанр : Jazz
Дата записи : 2024 / 2024-02-09
ISRC : UKR4Q1968252
Авторское право : 2023 Jammed Jazz 2023 Jammed Jazz
UPC : 5904195895296
MEDIATYPE : album
ITUNESADVISORY : 1

Аудио
Формат : FLAC
Формат/Информация : Free Lossless Audio Codec
Продолжительность : 3 м. 30 с.
Вид битрейта : Переменный
Битрейт : 1 456 Кбит/сек
Каналы : 2 канала
Channel layout : L R
Частота : 44,1 КГц
Битовая глубина : 24 бит
Метод сжатия : Без потерь
Размер потока : 36,5 Мбайт (100%)
Библиотека кодирования : libFLAC 1.1.0 (2003-01-26)
MD5 of the unencoded content : 00000000000000000000000000000000

Общее
Полное имя : H:\Jazz Sax Lounge Collection, Smooth Jazz Sax Instrumentals - Summer Saxophone Relaxation 2023 (2024)\14 - Magical Night.flac
Формат : FLAC
Формат/Информация : Free Lossless Audio Codec
Размер файла : 40,0 Мбайт
Продолжительность : 4 м. 0 с.
Режим общего битрейта : Переменный
Общий поток : 1 397 Кбит/сек
Альбом : Summer Saxophone Relaxation 2023
Альбом/Исполнитель : Jazz Sax Lounge Collection
Трек : Magical Night
Трек/Положение : 14
Исполнитель : Jazz Sax Lounge Collection
Композитор : Marco Rinaldo
Жанр : Jazz
Дата записи : 2024 / 2024-02-09
ISRC : UKR4Q1968253
Авторское право : 2023 Jammed Jazz 2023 Jammed Jazz
UPC : 5904195895296
MEDIATYPE : album
ITUNESADVISORY : 1

Аудио
Формат : FLAC
Формат/Информация : Free Lossless Audio Codec
Продолжительность : 4 м. 0 с.
Вид битрейта : Переменный
Битрейт : 1 397 Кбит/сек
Каналы : 2 канала
Channel layout : L R
Частота : 44,1 КГц
Битовая глубина : 24 бит
Метод сжатия : Без потерь
Размер потока : 40,0 Мбайт (100%)
Библиотека кодирования : libFLAC 1.1.0 (2003-01-26)
MD5 of the unencoded content : 00000000000000000000000000000000

Общее
Полное имя : H:\Jazz Sax Lounge Collection, Smooth Jazz Sax Instrumentals - Summer Saxophone Relaxation 2023 (2024)\15 - Give Me the Nights.flac
Формат : FLAC
Формат/Информация : Free Lossless Audio Codec
Размер файла : 31,4 Мбайт
Продолжительность : 3 м. 1 с.
Режим общего битрейта : Переменный
Общий поток : 1 450 Кбит/сек
Альбом : Summer Saxophone Relaxation 2023
Альбом/Исполнитель : Jazz Sax Lounge Collection
Трек : Give Me the Nights
Трек/Положение : 15
Исполнитель : Jazz Sax Lounge Collection
Композитор : Marco Rinaldo
Жанр : Jazz
Дата записи : 2024 / 2024-02-09
ISRC : UKR4Q1968254
Авторское право : 2023 Jammed Jazz 2023 Jammed Jazz
UPC : 5904195895296
MEDIATYPE : album
ITUNESADVISORY : 1

Аудио
Формат : FLAC
Формат/Информация : Free Lossless Audio Codec
Продолжительность : 3 м. 1 с.
Вид битрейта : Переменный
Битрейт : 1 450 Кбит/сек
Каналы : 2 канала
Channel layout : L R
Частота : 44,1 КГц
Битовая глубина : 24 бит
Метод сжатия : Без потерь
Размер потока : 31,4 Мбайт (100%)
Библиотека кодирования : libFLAC 1.1.0 (2003-01-26)
MD5 of the unencoded content : 00000000000000000000000000000000

Общее
Полное имя : H:\Jazz Sax Lounge Collection, Smooth Jazz Sax Instrumentals - Summer Saxophone Relaxation 2023 (2024)\Cover.jpg
Формат : JPEG
Размер файла : 46,5 Кбайт

Изображения
Формат : JPEG
Ширина : 400 пикселей
Высота : 400 пикселей
Цветовое пространство : YUV
Субдискретизация насыщенности : 4:2:0
Битовая глубина : 8 бит
Метод сжатия : С потерями
Размер потока : 46,5 Кбайт (100%)

Общее
Полное имя : H:\Jazz Sax Lounge Collection, Smooth Jazz Sax Instrumentals - Summer Saxophone Relaxation 2023 (2024)\foo_dr.txt
Размер файла : 1,68 Кбайт
Время раздачи: 24\7 на раздачи которым больше недели, не возвращаюсь (минимум до появления первых 3-5 скачавших)
[NNMClub.to]_Jazz Sax Lounge Collection, Smooth Jazz Sax Instrumentals - Summer Saxophone Relaxation 2023 (2024).torrent
 Торрент: Платиновая раздача  Зарегистрирован
 
Скачать


Примагнититься
 Зарегистрирован:   27 Фев 2024 07:13:48
 Размер:   559 MB  (
 Рейтинг:    (Голосов: 5)
 Поблагодарили:   52
 Проверка:   Оформление проверено модератором 27 Фев 2024 10:45:28
Как cкачать  ·  Как раздать  ·  Правильно оформить  ·  Поднять ратио!  
Показать сообщения:   
Начать новую тему   Ответить на тему    Торрент-трекер NNM-Club -> HD Audio и Многоканальная Музыка -> WEB-DL-Audio Часовой пояс: GMT + 3
Страница 1 из 1