Классический форум-трекер
canvas not supported
Нас вместе: 4 232 200

Relaxing Instrumental Jazz Ensemble - Beautiful Jazz Instrumental Collection (2024) [FLAC 24/44.1|Lossless|WEB-DL|tracks] <Jazz>


 
 
RSS
Начать новую тему   Ответить на тему    Торрент-трекер NNM-Club -> HD Audio и Многоканальная Музыка -> WEB-DL-Audio
Автор Сообщение
krochka1 ®
RG Music
Стаж: 3 года 4 мес.
Сообщений: 2401
Ratio: 384.686
Поблагодарили: 95658
100%
Relaxing Instrumental Jazz Ensemble - Beautiful Jazz Instrumental Collection (2024)
Жанр: Jazz
Издание: Jammed Jazz
Источник: Qobuz
Продолжительность: 00:52:39

Кодек: FLAC 24/44.1
Битрейт: Lossless|WEB-DL
Тип рипа: tracks

Треклист:
01. Smooth Moves (3:18)
02. Background Jazz (3:18)
03. Only Jazz (3:18)
04. Sensual Ambience (3:30)
05. Relaxing Vibes (3:31)
06. Ballads for Lovers (3:30)
07. Candle Light Dinner (3:15)
08. Take It Slowly (3:14)
09. Beautiful Moments (3:14)
10. Take Me Away (3:41)
11. Dinner for Two (3:39)
12. Lounge Cafe (3:40)
13. Full of Love (3:50)
14. Sentimental Soul (3:50)
15. Close to You (3:50)
Общее
Полное имя : H:\Relaxing Instrumental Jazz Ensemble - Beautiful Jazz Instrumental Collection (2024)\01 - Smooth Moves.flac
Формат : FLAC
Формат/Информация : Free Lossless Audio Codec
Размер файла : 32,3 Мбайт
Продолжительность : 3 м. 17 с.
Режим общего битрейта : Переменный
Общий поток : 1 370 Кбит/сек
Альбом : Beautiful Jazz Instrumental Collection
Альбом/Исполнитель : Relaxing Instrumental Jazz Ensemble
Трек : Smooth Moves
Трек/Положение : 01
Исполнитель : Relaxing Instrumental Jazz Ensemble
Композитор : Marco Rinaldo
Жанр : Jazz
Дата записи : 2024 / 2024-02-15
ISRC : PLS922245023
Авторское право : 2023 Jammed Jazz 2023 Jammed Jazz
UPC : 5904195854873
MEDIATYPE : album
ITUNESADVISORY : 1

Аудио
Формат : FLAC
Формат/Информация : Free Lossless Audio Codec
Продолжительность : 3 м. 17 с.
Вид битрейта : Переменный
Битрейт : 1 370 Кбит/сек
Каналы : 2 канала
Channel layout : L R
Частота : 44,1 КГц
Битовая глубина : 24 бит
Метод сжатия : Без потерь
Размер потока : 32,3 Мбайт (100%)
Библиотека кодирования : libFLAC 1.1.0 (2003-01-26)
MD5 of the unencoded content : 00000000000000000000000000000000

Общее
Полное имя : H:\Relaxing Instrumental Jazz Ensemble - Beautiful Jazz Instrumental Collection (2024)\02 - Background Jazz.flac
Формат : FLAC
Формат/Информация : Free Lossless Audio Codec
Размер файла : 32,9 Мбайт
Продолжительность : 3 м. 18 с.
Режим общего битрейта : Переменный
Общий поток : 1 393 Кбит/сек
Альбом : Beautiful Jazz Instrumental Collection
Альбом/Исполнитель : Relaxing Instrumental Jazz Ensemble
Трек : Background Jazz
Трек/Положение : 02
Исполнитель : Relaxing Instrumental Jazz Ensemble
Композитор : Marco Rinaldo
Жанр : Jazz
Дата записи : 2024 / 2024-02-15
ISRC : PLS922245024
Авторское право : 2023 Jammed Jazz 2023 Jammed Jazz
UPC : 5904195854873
MEDIATYPE : album
ITUNESADVISORY : 1

Аудио
Формат : FLAC
Формат/Информация : Free Lossless Audio Codec
Продолжительность : 3 м. 18 с.
Вид битрейта : Переменный
Битрейт : 1 393 Кбит/сек
Каналы : 2 канала
Channel layout : L R
Частота : 44,1 КГц
Битовая глубина : 24 бит
Метод сжатия : Без потерь
Размер потока : 32,9 Мбайт (100%)
Библиотека кодирования : libFLAC 1.1.0 (2003-01-26)
MD5 of the unencoded content : 00000000000000000000000000000000

Общее
Полное имя : H:\Relaxing Instrumental Jazz Ensemble - Beautiful Jazz Instrumental Collection (2024)\03 - Only Jazz.flac
Формат : FLAC
Формат/Информация : Free Lossless Audio Codec
Размер файла : 33,8 Мбайт
Продолжительность : 3 м. 18 с.
Режим общего битрейта : Переменный
Общий поток : 1 429 Кбит/сек
Альбом : Beautiful Jazz Instrumental Collection
Альбом/Исполнитель : Relaxing Instrumental Jazz Ensemble
Трек : Only Jazz
Трек/Положение : 03
Исполнитель : Relaxing Instrumental Jazz Ensemble
Композитор : Marco Rinaldo
Жанр : Jazz
Дата записи : 2024 / 2024-02-15
ISRC : PLS922245025
Авторское право : 2023 Jammed Jazz 2023 Jammed Jazz
UPC : 5904195854873
MEDIATYPE : album
ITUNESADVISORY : 1

Аудио
Формат : FLAC
Формат/Информация : Free Lossless Audio Codec
Продолжительность : 3 м. 18 с.
Вид битрейта : Переменный
Битрейт : 1 429 Кбит/сек
Каналы : 2 канала
Channel layout : L R
Частота : 44,1 КГц
Битовая глубина : 24 бит
Метод сжатия : Без потерь
Размер потока : 33,8 Мбайт (100%)
Библиотека кодирования : libFLAC 1.1.0 (2003-01-26)
MD5 of the unencoded content : 00000000000000000000000000000000

Общее
Полное имя : H:\Relaxing Instrumental Jazz Ensemble - Beautiful Jazz Instrumental Collection (2024)\04 - Sensual Ambience.flac
Формат : FLAC
Формат/Информация : Free Lossless Audio Codec
Размер файла : 37,7 Мбайт
Продолжительность : 3 м. 29 с.
Режим общего битрейта : Переменный
Общий поток : 1 511 Кбит/сек
Альбом : Beautiful Jazz Instrumental Collection
Альбом/Исполнитель : Relaxing Instrumental Jazz Ensemble
Трек : Sensual Ambience
Трек/Положение : 04
Исполнитель : Relaxing Instrumental Jazz Ensemble
Композитор : Marco Rinaldo
Жанр : Jazz
Дата записи : 2024 / 2024-02-15
ISRC : PLS922245026
Авторское право : 2023 Jammed Jazz 2023 Jammed Jazz
UPC : 5904195854873
MEDIATYPE : album
ITUNESADVISORY : 1

Аудио
Формат : FLAC
Формат/Информация : Free Lossless Audio Codec
Продолжительность : 3 м. 29 с.
Вид битрейта : Переменный
Битрейт : 1 511 Кбит/сек
Каналы : 2 канала
Channel layout : L R
Частота : 44,1 КГц
Битовая глубина : 24 бит
Метод сжатия : Без потерь
Размер потока : 37,7 Мбайт (100%)
Библиотека кодирования : libFLAC 1.1.0 (2003-01-26)
MD5 of the unencoded content : 00000000000000000000000000000000

Общее
Полное имя : H:\Relaxing Instrumental Jazz Ensemble - Beautiful Jazz Instrumental Collection (2024)\05 - Relaxing Vibes.flac
Формат : FLAC
Формат/Информация : Free Lossless Audio Codec
Размер файла : 36,3 Мбайт
Продолжительность : 3 м. 30 с.
Режим общего битрейта : Переменный
Общий поток : 1 445 Кбит/сек
Альбом : Beautiful Jazz Instrumental Collection
Альбом/Исполнитель : Relaxing Instrumental Jazz Ensemble
Трек : Relaxing Vibes
Трек/Положение : 05
Исполнитель : Relaxing Instrumental Jazz Ensemble
Композитор : Marco Rinaldo
Жанр : Jazz
Дата записи : 2024 / 2024-02-15
ISRC : PLS922245027
Авторское право : 2023 Jammed Jazz 2023 Jammed Jazz
UPC : 5904195854873
MEDIATYPE : album
ITUNESADVISORY : 1

Аудио
Формат : FLAC
Формат/Информация : Free Lossless Audio Codec
Продолжительность : 3 м. 30 с.
Вид битрейта : Переменный
Битрейт : 1 445 Кбит/сек
Каналы : 2 канала
Channel layout : L R
Частота : 44,1 КГц
Битовая глубина : 24 бит
Метод сжатия : Без потерь
Размер потока : 36,3 Мбайт (100%)
Библиотека кодирования : libFLAC 1.1.0 (2003-01-26)
MD5 of the unencoded content : 00000000000000000000000000000000

Общее
Полное имя : H:\Relaxing Instrumental Jazz Ensemble - Beautiful Jazz Instrumental Collection (2024)\06 - Ballads for Lovers.flac
Формат : FLAC
Формат/Информация : Free Lossless Audio Codec
Размер файла : 36,7 Мбайт
Продолжительность : 3 м. 30 с.
Режим общего битрейта : Переменный
Общий поток : 1 465 Кбит/сек
Альбом : Beautiful Jazz Instrumental Collection
Альбом/Исполнитель : Relaxing Instrumental Jazz Ensemble
Трек : Ballads for Lovers
Трек/Положение : 06
Исполнитель : Relaxing Instrumental Jazz Ensemble
Композитор : Marco Rinaldo
Жанр : Jazz
Дата записи : 2024 / 2024-02-15
ISRC : PLS922245028
Авторское право : 2023 Jammed Jazz 2023 Jammed Jazz
UPC : 5904195854873
MEDIATYPE : album
ITUNESADVISORY : 1

Аудио
Формат : FLAC
Формат/Информация : Free Lossless Audio Codec
Продолжительность : 3 м. 30 с.
Вид битрейта : Переменный
Битрейт : 1 465 Кбит/сек
Каналы : 2 канала
Channel layout : L R
Частота : 44,1 КГц
Битовая глубина : 24 бит
Метод сжатия : Без потерь
Размер потока : 36,7 Мбайт (100%)
Библиотека кодирования : libFLAC 1.1.0 (2003-01-26)
MD5 of the unencoded content : 00000000000000000000000000000000

Общее
Полное имя : H:\Relaxing Instrumental Jazz Ensemble - Beautiful Jazz Instrumental Collection (2024)\07 - Candle Light Dinner.flac
Формат : FLAC
Формат/Информация : Free Lossless Audio Codec
Размер файла : 31,6 Мбайт
Продолжительность : 3 м. 14 с.
Режим общего битрейта : Переменный
Общий поток : 1 359 Кбит/сек
Альбом : Beautiful Jazz Instrumental Collection
Альбом/Исполнитель : Relaxing Instrumental Jazz Ensemble
Трек : Candle Light Dinner
Трек/Положение : 07
Исполнитель : Relaxing Instrumental Jazz Ensemble
Композитор : Marco Rinaldo
Жанр : Jazz
Дата записи : 2024 / 2024-02-15
ISRC : PLS922245029
Авторское право : 2023 Jammed Jazz 2023 Jammed Jazz
UPC : 5904195854873
MEDIATYPE : album
ITUNESADVISORY : 1

Аудио
Формат : FLAC
Формат/Информация : Free Lossless Audio Codec
Продолжительность : 3 м. 14 с.
Вид битрейта : Переменный
Битрейт : 1 359 Кбит/сек
Каналы : 2 канала
Channel layout : L R
Частота : 44,1 КГц
Битовая глубина : 24 бит
Метод сжатия : Без потерь
Размер потока : 31,6 Мбайт (100%)
Библиотека кодирования : libFLAC 1.1.0 (2003-01-26)
MD5 of the unencoded content : 00000000000000000000000000000000

Общее
Полное имя : H:\Relaxing Instrumental Jazz Ensemble - Beautiful Jazz Instrumental Collection (2024)\08 - Take It Slowly.flac
Формат : FLAC
Формат/Информация : Free Lossless Audio Codec
Размер файла : 30,9 Мбайт
Продолжительность : 3 м. 13 с.
Режим общего битрейта : Переменный
Общий поток : 1 338 Кбит/сек
Альбом : Beautiful Jazz Instrumental Collection
Альбом/Исполнитель : Relaxing Instrumental Jazz Ensemble
Трек : Take It Slowly
Трек/Положение : 08
Исполнитель : Relaxing Instrumental Jazz Ensemble
Композитор : Marco Rinaldo
Жанр : Jazz
Дата записи : 2024 / 2024-02-15
ISRC : PLS922245030
Авторское право : 2023 Jammed Jazz 2023 Jammed Jazz
UPC : 5904195854873
MEDIATYPE : album
ITUNESADVISORY : 1

Аудио
Формат : FLAC
Формат/Информация : Free Lossless Audio Codec
Продолжительность : 3 м. 13 с.
Вид битрейта : Переменный
Битрейт : 1 338 Кбит/сек
Каналы : 2 канала
Channel layout : L R
Частота : 44,1 КГц
Битовая глубина : 24 бит
Метод сжатия : Без потерь
Размер потока : 30,9 Мбайт (100%)
Библиотека кодирования : libFLAC 1.1.0 (2003-01-26)
MD5 of the unencoded content : 00000000000000000000000000000000

Общее
Полное имя : H:\Relaxing Instrumental Jazz Ensemble - Beautiful Jazz Instrumental Collection (2024)\09 - Beautiful Moments.flac
Формат : FLAC
Формат/Информация : Free Lossless Audio Codec
Размер файла : 30,4 Мбайт
Продолжительность : 3 м. 14 с.
Режим общего битрейта : Переменный
Общий поток : 1 315 Кбит/сек
Альбом : Beautiful Jazz Instrumental Collection
Альбом/Исполнитель : Relaxing Instrumental Jazz Ensemble
Трек : Beautiful Moments
Трек/Положение : 09
Исполнитель : Relaxing Instrumental Jazz Ensemble
Композитор : Marco Rinaldo
Жанр : Jazz
Дата записи : 2024 / 2024-02-15
ISRC : PLS922245031
Авторское право : 2023 Jammed Jazz 2023 Jammed Jazz
UPC : 5904195854873
MEDIATYPE : album
ITUNESADVISORY : 1

Аудио
Формат : FLAC
Формат/Информация : Free Lossless Audio Codec
Продолжительность : 3 м. 14 с.
Вид битрейта : Переменный
Битрейт : 1 315 Кбит/сек
Каналы : 2 канала
Channel layout : L R
Частота : 44,1 КГц
Битовая глубина : 24 бит
Метод сжатия : Без потерь
Размер потока : 30,4 Мбайт (100%)
Библиотека кодирования : libFLAC 1.1.0 (2003-01-26)
MD5 of the unencoded content : 00000000000000000000000000000000

Общее
Полное имя : H:\Relaxing Instrumental Jazz Ensemble - Beautiful Jazz Instrumental Collection (2024)\10 - Take Me Away.flac
Формат : FLAC
Формат/Информация : Free Lossless Audio Codec
Размер файла : 36,6 Мбайт
Продолжительность : 3 м. 40 с.
Режим общего битрейта : Переменный
Общий поток : 1 392 Кбит/сек
Альбом : Beautiful Jazz Instrumental Collection
Альбом/Исполнитель : Relaxing Instrumental Jazz Ensemble
Трек : Take Me Away
Трек/Положение : 10
Исполнитель : Relaxing Instrumental Jazz Ensemble
Композитор : Marco Rinaldo
Жанр : Jazz
Дата записи : 2024 / 2024-02-15
ISRC : PLS922245032
Авторское право : 2023 Jammed Jazz 2023 Jammed Jazz
UPC : 5904195854873
MEDIATYPE : album
ITUNESADVISORY : 1

Аудио
Формат : FLAC
Формат/Информация : Free Lossless Audio Codec
Продолжительность : 3 м. 40 с.
Вид битрейта : Переменный
Битрейт : 1 392 Кбит/сек
Каналы : 2 канала
Channel layout : L R
Частота : 44,1 КГц
Битовая глубина : 24 бит
Метод сжатия : Без потерь
Размер потока : 36,6 Мбайт (100%)
Библиотека кодирования : libFLAC 1.1.0 (2003-01-26)
MD5 of the unencoded content : 00000000000000000000000000000000

Общее
Полное имя : H:\Relaxing Instrumental Jazz Ensemble - Beautiful Jazz Instrumental Collection (2024)\11 - Dinner for Two.flac
Формат : FLAC
Формат/Информация : Free Lossless Audio Codec
Размер файла : 37,9 Мбайт
Продолжительность : 3 м. 39 с.
Режим общего битрейта : Переменный
Общий поток : 1 451 Кбит/сек
Альбом : Beautiful Jazz Instrumental Collection
Альбом/Исполнитель : Relaxing Instrumental Jazz Ensemble
Трек : Dinner for Two
Трек/Положение : 11
Исполнитель : Relaxing Instrumental Jazz Ensemble
Композитор : Marco Rinaldo
Жанр : Jazz
Дата записи : 2024 / 2024-02-15
ISRC : PLS922245033
Авторское право : 2023 Jammed Jazz 2023 Jammed Jazz
UPC : 5904195854873
MEDIATYPE : album
ITUNESADVISORY : 1

Аудио
Формат : FLAC
Формат/Информация : Free Lossless Audio Codec
Продолжительность : 3 м. 39 с.
Вид битрейта : Переменный
Битрейт : 1 451 Кбит/сек
Каналы : 2 канала
Channel layout : L R
Частота : 44,1 КГц
Битовая глубина : 24 бит
Метод сжатия : Без потерь
Размер потока : 37,9 Мбайт (100%)
Библиотека кодирования : libFLAC 1.1.0 (2003-01-26)
MD5 of the unencoded content : 00000000000000000000000000000000

Общее
Полное имя : H:\Relaxing Instrumental Jazz Ensemble - Beautiful Jazz Instrumental Collection (2024)\12 - Lounge Cafe.flac
Формат : FLAC
Формат/Информация : Free Lossless Audio Codec
Размер файла : 36,6 Мбайт
Продолжительность : 3 м. 40 с.
Режим общего битрейта : Переменный
Общий поток : 1 396 Кбит/сек
Альбом : Beautiful Jazz Instrumental Collection
Альбом/Исполнитель : Relaxing Instrumental Jazz Ensemble
Трек : Lounge Cafe
Трек/Положение : 12
Исполнитель : Relaxing Instrumental Jazz Ensemble
Композитор : Marco Rinaldo
Жанр : Jazz
Дата записи : 2024 / 2024-02-15
ISRC : PLS922245034
Авторское право : 2023 Jammed Jazz 2023 Jammed Jazz
UPC : 5904195854873
MEDIATYPE : album
ITUNESADVISORY : 1

Аудио
Формат : FLAC
Формат/Информация : Free Lossless Audio Codec
Продолжительность : 3 м. 40 с.
Вид битрейта : Переменный
Битрейт : 1 395 Кбит/сек
Каналы : 2 канала
Channel layout : L R
Частота : 44,1 КГц
Битовая глубина : 24 бит
Метод сжатия : Без потерь
Размер потока : 36,6 Мбайт (100%)
Библиотека кодирования : libFLAC 1.1.0 (2003-01-26)
MD5 of the unencoded content : 00000000000000000000000000000000

Общее
Полное имя : H:\Relaxing Instrumental Jazz Ensemble - Beautiful Jazz Instrumental Collection (2024)\13 - Full of Love.flac
Формат : FLAC
Формат/Информация : Free Lossless Audio Codec
Размер файла : 37,3 Мбайт
Продолжительность : 3 м. 50 с.
Режим общего битрейта : Переменный
Общий поток : 1 362 Кбит/сек
Альбом : Beautiful Jazz Instrumental Collection
Альбом/Исполнитель : Relaxing Instrumental Jazz Ensemble
Трек : Full of Love
Трек/Положение : 13
Исполнитель : Relaxing Instrumental Jazz Ensemble
Композитор : Marco Rinaldo
Жанр : Jazz
Дата записи : 2024 / 2024-02-15
ISRC : PLS922245035
Авторское право : 2023 Jammed Jazz 2023 Jammed Jazz
UPC : 5904195854873
MEDIATYPE : album
ITUNESADVISORY : 1

Аудио
Формат : FLAC
Формат/Информация : Free Lossless Audio Codec
Продолжительность : 3 м. 50 с.
Вид битрейта : Переменный
Битрейт : 1 362 Кбит/сек
Каналы : 2 канала
Channel layout : L R
Частота : 44,1 КГц
Битовая глубина : 24 бит
Метод сжатия : Без потерь
Размер потока : 37,3 Мбайт (100%)
Библиотека кодирования : libFLAC 1.1.0 (2003-01-26)
MD5 of the unencoded content : 00000000000000000000000000000000

Общее
Полное имя : H:\Relaxing Instrumental Jazz Ensemble - Beautiful Jazz Instrumental Collection (2024)\14 - Sentimental Soul.flac
Формат : FLAC
Формат/Информация : Free Lossless Audio Codec
Размер файла : 38,9 Мбайт
Продолжительность : 3 м. 49 с.
Режим общего битрейта : Переменный
Общий поток : 1 420 Кбит/сек
Альбом : Beautiful Jazz Instrumental Collection
Альбом/Исполнитель : Relaxing Instrumental Jazz Ensemble
Трек : Sentimental Soul
Трек/Положение : 14
Исполнитель : Relaxing Instrumental Jazz Ensemble
Композитор : Marco Rinaldo
Жанр : Jazz
Дата записи : 2024 / 2024-02-15
ISRC : PLS922245036
Авторское право : 2023 Jammed Jazz 2023 Jammed Jazz
UPC : 5904195854873
MEDIATYPE : album
ITUNESADVISORY : 1

Аудио
Формат : FLAC
Формат/Информация : Free Lossless Audio Codec
Продолжительность : 3 м. 49 с.
Вид битрейта : Переменный
Битрейт : 1 419 Кбит/сек
Каналы : 2 канала
Channel layout : L R
Частота : 44,1 КГц
Битовая глубина : 24 бит
Метод сжатия : Без потерь
Размер потока : 38,9 Мбайт (100%)
Библиотека кодирования : libFLAC 1.1.0 (2003-01-26)
MD5 of the unencoded content : 00000000000000000000000000000000

Общее
Полное имя : H:\Relaxing Instrumental Jazz Ensemble - Beautiful Jazz Instrumental Collection (2024)\15 - Close to You.flac
Формат : FLAC
Формат/Информация : Free Lossless Audio Codec
Размер файла : 37,7 Мбайт
Продолжительность : 3 м. 49 с.
Режим общего битрейта : Переменный
Общий поток : 1 377 Кбит/сек
Альбом : Beautiful Jazz Instrumental Collection
Альбом/Исполнитель : Relaxing Instrumental Jazz Ensemble
Трек : Close to You
Трек/Положение : 15
Исполнитель : Relaxing Instrumental Jazz Ensemble
Композитор : Marco Rinaldo
Жанр : Jazz
Дата записи : 2024 / 2024-02-15
ISRC : PLS922245037
Авторское право : 2023 Jammed Jazz 2023 Jammed Jazz
UPC : 5904195854873
MEDIATYPE : album
ITUNESADVISORY : 1

Аудио
Формат : FLAC
Формат/Информация : Free Lossless Audio Codec
Продолжительность : 3 м. 49 с.
Вид битрейта : Переменный
Битрейт : 1 376 Кбит/сек
Каналы : 2 канала
Channel layout : L R
Частота : 44,1 КГц
Битовая глубина : 24 бит
Метод сжатия : Без потерь
Размер потока : 37,7 Мбайт (100%)
Библиотека кодирования : libFLAC 1.1.0 (2003-01-26)
MD5 of the unencoded content : 00000000000000000000000000000000

Общее
Полное имя : H:\Relaxing Instrumental Jazz Ensemble - Beautiful Jazz Instrumental Collection (2024)\Cover.jpg
Формат : JPEG
Размер файла : 97,3 Кбайт

Изображения
Формат : JPEG
Ширина : 400 пикселей
Высота : 400 пикселей
Цветовое пространство : YUV
Субдискретизация насыщенности : 4:2:0
Битовая глубина : 8 бит
Метод сжатия : С потерями
Размер потока : 97,3 Кбайт (100%)

Общее
Полное имя : H:\Relaxing Instrumental Jazz Ensemble - Beautiful Jazz Instrumental Collection (2024)\foo_dr.txt
Размер файла : 1,67 Кбайт
Время раздачи: 24\7 на раздачи которым больше недели, не возвращаюсь (минимум до появления первых 3-5 скачавших)
[NNMClub.to]_Relaxing Instrumental Jazz Ensemble - Beautiful Jazz Instrumental Collection (2024).torrent
 Торрент:   Зарегистрирован
 
Зарегистрируйтесь и скачайте торрент!
11.4 KB

Примагнититься
 Зарегистрирован:   27 Фев 2024 07:23:36
 Размер:   528 MB  (
 Рейтинг:    (Голосов: 2)
 Поблагодарили:   46
 Проверка:   Оформление проверено модератором 27 Фев 2024 10:45:14
Как cкачать  ·  Как раздать  ·  Правильно оформить  ·  Поднять ратио!  
Показать сообщения:   
Начать новую тему   Ответить на тему    Торрент-трекер NNM-Club -> HD Audio и Многоканальная Музыка -> WEB-DL-Audio Часовой пояс: GMT + 3
Страница 1 из 1