Классический форум-трекер
canvas not supported
Нас вместе: 4 232 202

Restaurant Music, Calming Jazz Relax Academy - Jazz for Dinner and Wine (2024) [FLAC 24/44.1|Lossless|WEB-DL|tracks] <Jazz>


 
 
RSS
Начать новую тему   Ответить на тему    Торрент-трекер NNM-Club -> HD Audio и Многоканальная Музыка -> WEB-DL-Audio
Автор Сообщение
krochka1 ®
RG Music
Стаж: 3 года 4 мес.
Сообщений: 2401
Ratio: 384.688
Поблагодарили: 95671
100%
Restaurant Music, Calming Jazz Relax Academy - Jazz for Dinner and Wine (2024)
Жанр: Jazz
Издание: Jammed Jazz
Источник: Qobuz
Продолжительность: 01:04:15

Кодек: FLAC 24/44.1
Битрейт: Lossless|WEB-DL
Тип рипа: tracks

Треклист:
01. Nice on Top (3:39)
02. Smooth Jazz Relaxation (3:28)
03. Wine and Roses (3:38)
04. Sexy Jazzy Evening (3:38)
05. Easy Jazz Dinner (4:58)
06. Lady in Red (3:48)
07. Don’t Stop the Music (3:48)
08. Head in the Clouds (3:58)
09. Return to Paradise (3:58)
10. Sleepy Blue Lagoon (4:24)
11. Smile Like That (4:54)
12. Lounge Smooth Jazz (6:25)
13. Beach Cocktails (4:58)
14. Kissing Game (3:48)
15. A Night to Remember (4:54)
Общее
Полное имя : H:\Restaurant Music, Calming Jazz Relax Academy - Jazz for Dinner and Wine (2024)\01 - Nice on Top.flac
Формат : FLAC
Формат/Информация : Free Lossless Audio Codec
Размер файла : 38,9 Мбайт
Продолжительность : 3 м. 38 с.
Режим общего битрейта : Переменный
Общий поток : 1 495 Кбит/сек
Альбом : Jazz for Dinner and Wine
Альбом/Исполнитель : Restaurant Music
Трек : Nice on Top
Трек/Положение : 01
Исполнитель : Restaurant Music
Композитор : Marco Rinaldo
Жанр : Jazz
Дата записи : 2024 / 2024-02-16
ISRC : PLS922229672
Авторское право : 2023 Jammed Jazz 2023 Jammed Jazz
UPC : 5904195867668
MEDIATYPE : album
ITUNESADVISORY : 1

Аудио
Формат : FLAC
Формат/Информация : Free Lossless Audio Codec
Продолжительность : 3 м. 38 с.
Вид битрейта : Переменный
Битрейт : 1 494 Кбит/сек
Каналы : 2 канала
Channel layout : L R
Частота : 44,1 КГц
Битовая глубина : 24 бит
Метод сжатия : Без потерь
Размер потока : 38,9 Мбайт (100%)
Библиотека кодирования : libFLAC 1.1.0 (2003-01-26)
MD5 of the unencoded content : 00000000000000000000000000000000

Общее
Полное имя : H:\Restaurant Music, Calming Jazz Relax Academy - Jazz for Dinner and Wine (2024)\02 - Smooth Jazz Relaxation.flac
Формат : FLAC
Формат/Информация : Free Lossless Audio Codec
Размер файла : 37,6 Мбайт
Продолжительность : 3 м. 28 с.
Режим общего битрейта : Переменный
Общий поток : 1 515 Кбит/сек
Альбом : Jazz for Dinner and Wine
Альбом/Исполнитель : Restaurant Music
Трек : Smooth Jazz Relaxation
Трек/Положение : 02
Исполнитель : Restaurant Music
Композитор : Marco Rinaldo
Жанр : Jazz
Дата записи : 2024 / 2024-02-16
ISRC : PLS922229673
Авторское право : 2023 Jammed Jazz 2023 Jammed Jazz
UPC : 5904195867668
MEDIATYPE : album
ITUNESADVISORY : 1

Аудио
Формат : FLAC
Формат/Информация : Free Lossless Audio Codec
Продолжительность : 3 м. 28 с.
Вид битрейта : Переменный
Битрейт : 1 515 Кбит/сек
Каналы : 2 канала
Channel layout : L R
Частота : 44,1 КГц
Битовая глубина : 24 бит
Метод сжатия : Без потерь
Размер потока : 37,6 Мбайт (100%)
Библиотека кодирования : libFLAC 1.1.0 (2003-01-26)
MD5 of the unencoded content : 00000000000000000000000000000000

Общее
Полное имя : H:\Restaurant Music, Calming Jazz Relax Academy - Jazz for Dinner and Wine (2024)\03 - Wine and Roses.flac
Формат : FLAC
Формат/Информация : Free Lossless Audio Codec
Размер файла : 34,8 Мбайт
Продолжительность : 3 м. 38 с.
Режим общего битрейта : Переменный
Общий поток : 1 337 Кбит/сек
Альбом : Jazz for Dinner and Wine
Альбом/Исполнитель : Restaurant Music
Трек : Wine and Roses
Трек/Положение : 03
Исполнитель : Restaurant Music
Композитор : Marco Rinaldo
Жанр : Jazz
Дата записи : 2024 / 2024-02-16
ISRC : PLS922229674
Авторское право : 2023 Jammed Jazz 2023 Jammed Jazz
UPC : 5904195867668
MEDIATYPE : album
ITUNESADVISORY : 1

Аудио
Формат : FLAC
Формат/Информация : Free Lossless Audio Codec
Продолжительность : 3 м. 38 с.
Вид битрейта : Переменный
Битрейт : 1 337 Кбит/сек
Каналы : 2 канала
Channel layout : L R
Частота : 44,1 КГц
Битовая глубина : 24 бит
Метод сжатия : Без потерь
Размер потока : 34,8 Мбайт (100%)
Библиотека кодирования : libFLAC 1.1.0 (2003-01-26)
MD5 of the unencoded content : 00000000000000000000000000000000

Общее
Полное имя : H:\Restaurant Music, Calming Jazz Relax Academy - Jazz for Dinner and Wine (2024)\04 - Sexy Jazzy Evening.flac
Формат : FLAC
Формат/Информация : Free Lossless Audio Codec
Размер файла : 39,2 Мбайт
Продолжительность : 3 м. 38 с.
Режим общего битрейта : Переменный
Общий поток : 1 507 Кбит/сек
Альбом : Jazz for Dinner and Wine
Альбом/Исполнитель : Restaurant Music
Трек : Sexy Jazzy Evening
Трек/Положение : 04
Исполнитель : Restaurant Music
Композитор : Marco Rinaldo
Жанр : Jazz
Дата записи : 2024 / 2024-02-16
ISRC : PLS922229675
Авторское право : 2023 Jammed Jazz 2023 Jammed Jazz
UPC : 5904195867668
MEDIATYPE : album
ITUNESADVISORY : 1

Аудио
Формат : FLAC
Формат/Информация : Free Lossless Audio Codec
Продолжительность : 3 м. 38 с.
Вид битрейта : Переменный
Битрейт : 1 507 Кбит/сек
Каналы : 2 канала
Channel layout : L R
Частота : 44,1 КГц
Битовая глубина : 24 бит
Метод сжатия : Без потерь
Размер потока : 39,2 Мбайт (100%)
Библиотека кодирования : libFLAC 1.1.0 (2003-01-26)
MD5 of the unencoded content : 00000000000000000000000000000000

Общее
Полное имя : H:\Restaurant Music, Calming Jazz Relax Academy - Jazz for Dinner and Wine (2024)\05 - Easy Jazz Dinner.flac
Формат : FLAC
Формат/Информация : Free Lossless Audio Codec
Размер файла : 47,1 Мбайт
Продолжительность : 4 м. 57 с.
Режим общего битрейта : Переменный
Общий поток : 1 327 Кбит/сек
Альбом : Jazz for Dinner and Wine
Альбом/Исполнитель : Restaurant Music
Трек : Easy Jazz Dinner
Трек/Положение : 05
Исполнитель : Restaurant Music
Композитор : Marco Rinaldo
Жанр : Jazz
Дата записи : 2024 / 2024-02-16
ISRC : PLS922229676
Авторское право : 2023 Jammed Jazz 2023 Jammed Jazz
UPC : 5904195867668
MEDIATYPE : album
ITUNESADVISORY : 1

Аудио
Формат : FLAC
Формат/Информация : Free Lossless Audio Codec
Продолжительность : 4 м. 57 с.
Вид битрейта : Переменный
Битрейт : 1 327 Кбит/сек
Каналы : 2 канала
Channel layout : L R
Частота : 44,1 КГц
Битовая глубина : 24 бит
Метод сжатия : Без потерь
Размер потока : 47,1 Мбайт (100%)
Библиотека кодирования : libFLAC 1.1.0 (2003-01-26)
MD5 of the unencoded content : 00000000000000000000000000000000

Общее
Полное имя : H:\Restaurant Music, Calming Jazz Relax Academy - Jazz for Dinner and Wine (2024)\06 - Lady in Red.flac
Формат : FLAC
Формат/Информация : Free Lossless Audio Codec
Размер файла : 38,5 Мбайт
Продолжительность : 3 м. 48 с.
Режим общего битрейта : Переменный
Общий поток : 1 417 Кбит/сек
Альбом : Jazz for Dinner and Wine
Альбом/Исполнитель : Restaurant Music
Трек : Lady in Red
Трек/Положение : 06
Исполнитель : Restaurant Music
Композитор : Marco Rinaldo
Жанр : Jazz
Дата записи : 2024 / 2024-02-16
ISRC : PLS922229677
Авторское право : 2023 Jammed Jazz 2023 Jammed Jazz
UPC : 5904195867668
MEDIATYPE : album
ITUNESADVISORY : 1

Аудио
Формат : FLAC
Формат/Информация : Free Lossless Audio Codec
Продолжительность : 3 м. 48 с.
Вид битрейта : Переменный
Битрейт : 1 416 Кбит/сек
Каналы : 2 канала
Channel layout : L R
Частота : 44,1 КГц
Битовая глубина : 24 бит
Метод сжатия : Без потерь
Размер потока : 38,5 Мбайт (100%)
Библиотека кодирования : libFLAC 1.1.0 (2003-01-26)
MD5 of the unencoded content : 00000000000000000000000000000000

Общее
Полное имя : H:\Restaurant Music, Calming Jazz Relax Academy - Jazz for Dinner and Wine (2024)\07 - Don’t Stop the Music.flac
Формат : FLAC
Формат/Информация : Free Lossless Audio Codec
Размер файла : 38,1 Мбайт
Продолжительность : 3 м. 48 с.
Режим общего битрейта : Переменный
Общий поток : 1 401 Кбит/сек
Альбом : Jazz for Dinner and Wine
Альбом/Исполнитель : Restaurant Music
Трек : Don’t Stop the Music
Трек/Положение : 07
Исполнитель : Restaurant Music
Композитор : Marco Rinaldo
Жанр : Jazz
Дата записи : 2024 / 2024-02-16
ISRC : PLS922229678
Авторское право : 2023 Jammed Jazz 2023 Jammed Jazz
UPC : 5904195867668
MEDIATYPE : album
ITUNESADVISORY : 1

Аудио
Формат : FLAC
Формат/Информация : Free Lossless Audio Codec
Продолжительность : 3 м. 48 с.
Вид битрейта : Переменный
Битрейт : 1 400 Кбит/сек
Каналы : 2 канала
Channel layout : L R
Частота : 44,1 КГц
Битовая глубина : 24 бит
Метод сжатия : Без потерь
Размер потока : 38,1 Мбайт (100%)
Библиотека кодирования : libFLAC 1.1.0 (2003-01-26)
MD5 of the unencoded content : 00000000000000000000000000000000

Общее
Полное имя : H:\Restaurant Music, Calming Jazz Relax Academy - Jazz for Dinner and Wine (2024)\08 - Head in the Clouds.flac
Формат : FLAC
Формат/Информация : Free Lossless Audio Codec
Размер файла : 39,0 Мбайт
Продолжительность : 3 м. 58 с.
Режим общего битрейта : Переменный
Общий поток : 1 374 Кбит/сек
Альбом : Jazz for Dinner and Wine
Альбом/Исполнитель : Restaurant Music
Трек : Head in the Clouds
Трек/Положение : 08
Исполнитель : Restaurant Music
Композитор : Marco Rinaldo
Жанр : Jazz
Дата записи : 2024 / 2024-02-16
ISRC : PLS922229679
Авторское право : 2023 Jammed Jazz 2023 Jammed Jazz
UPC : 5904195867668
MEDIATYPE : album
ITUNESADVISORY : 1

Аудио
Формат : FLAC
Формат/Информация : Free Lossless Audio Codec
Продолжительность : 3 м. 58 с.
Вид битрейта : Переменный
Битрейт : 1 374 Кбит/сек
Каналы : 2 канала
Channel layout : L R
Частота : 44,1 КГц
Битовая глубина : 24 бит
Метод сжатия : Без потерь
Размер потока : 39,0 Мбайт (100%)
Библиотека кодирования : libFLAC 1.1.0 (2003-01-26)
MD5 of the unencoded content : 00000000000000000000000000000000

Общее
Полное имя : H:\Restaurant Music, Calming Jazz Relax Academy - Jazz for Dinner and Wine (2024)\09 - Return to Paradise.flac
Формат : FLAC
Формат/Информация : Free Lossless Audio Codec
Размер файла : 37,3 Мбайт
Продолжительность : 3 м. 58 с.
Режим общего битрейта : Переменный
Общий поток : 1 314 Кбит/сек
Альбом : Jazz for Dinner and Wine
Альбом/Исполнитель : Restaurant Music
Трек : Return to Paradise
Трек/Положение : 09
Исполнитель : Restaurant Music
Композитор : Marco Rinaldo
Жанр : Jazz
Дата записи : 2024 / 2024-02-16
ISRC : PLS922229680
Авторское право : 2023 Jammed Jazz 2023 Jammed Jazz
UPC : 5904195867668
MEDIATYPE : album
ITUNESADVISORY : 1

Аудио
Формат : FLAC
Формат/Информация : Free Lossless Audio Codec
Продолжительность : 3 м. 58 с.
Вид битрейта : Переменный
Битрейт : 1 314 Кбит/сек
Каналы : 2 канала
Channel layout : L R
Частота : 44,1 КГц
Битовая глубина : 24 бит
Метод сжатия : Без потерь
Размер потока : 37,3 Мбайт (100%)
Библиотека кодирования : libFLAC 1.1.0 (2003-01-26)
MD5 of the unencoded content : 00000000000000000000000000000000

Общее
Полное имя : H:\Restaurant Music, Calming Jazz Relax Academy - Jazz for Dinner and Wine (2024)\10 - Sleepy Blue Lagoon.flac
Формат : FLAC
Формат/Информация : Free Lossless Audio Codec
Размер файла : 39,9 Мбайт
Продолжительность : 4 м. 23 с.
Режим общего битрейта : Переменный
Общий поток : 1 269 Кбит/сек
Альбом : Jazz for Dinner and Wine
Альбом/Исполнитель : Restaurant Music
Трек : Sleepy Blue Lagoon
Трек/Положение : 10
Исполнитель : Restaurant Music
Композитор : Marco Rinaldo
Жанр : Jazz
Дата записи : 2024 / 2024-02-16
ISRC : PLS922229681
Авторское право : 2023 Jammed Jazz 2023 Jammed Jazz
UPC : 5904195867668
MEDIATYPE : album
ITUNESADVISORY : 1

Аудио
Формат : FLAC
Формат/Информация : Free Lossless Audio Codec
Продолжительность : 4 м. 23 с.
Вид битрейта : Переменный
Битрейт : 1 269 Кбит/сек
Каналы : 2 канала
Channel layout : L R
Частота : 44,1 КГц
Битовая глубина : 24 бит
Метод сжатия : Без потерь
Размер потока : 39,9 Мбайт (100%)
Библиотека кодирования : libFLAC 1.1.0 (2003-01-26)
MD5 of the unencoded content : 00000000000000000000000000000000

Общее
Полное имя : H:\Restaurant Music, Calming Jazz Relax Academy - Jazz for Dinner and Wine (2024)\11 - Smile Like That.flac
Формат : FLAC
Формат/Информация : Free Lossless Audio Codec
Размер файла : 44,8 Мбайт
Продолжительность : 4 м. 53 с.
Режим общего битрейта : Переменный
Общий поток : 1 281 Кбит/сек
Альбом : Jazz for Dinner and Wine
Альбом/Исполнитель : Restaurant Music
Трек : Smile Like That
Трек/Положение : 11
Исполнитель : Restaurant Music
Композитор : Marco Rinaldo
Жанр : Jazz
Дата записи : 2024 / 2024-02-16
ISRC : PLS922229682
Авторское право : 2023 Jammed Jazz 2023 Jammed Jazz
UPC : 5904195867668
MEDIATYPE : album
ITUNESADVISORY : 1

Аудио
Формат : FLAC
Формат/Информация : Free Lossless Audio Codec
Продолжительность : 4 м. 53 с.
Вид битрейта : Переменный
Битрейт : 1 281 Кбит/сек
Каналы : 2 канала
Channel layout : L R
Частота : 44,1 КГц
Битовая глубина : 24 бит
Метод сжатия : Без потерь
Размер потока : 44,8 Мбайт (100%)
Библиотека кодирования : libFLAC 1.1.0 (2003-01-26)
MD5 of the unencoded content : 00000000000000000000000000000000

Общее
Полное имя : H:\Restaurant Music, Calming Jazz Relax Academy - Jazz for Dinner and Wine (2024)\12 - Lounge Smooth Jazz.flac
Формат : FLAC
Формат/Информация : Free Lossless Audio Codec
Размер файла : 68,9 Мбайт
Продолжительность : 6 м. 24 с.
Режим общего битрейта : Переменный
Общий поток : 1 502 Кбит/сек
Альбом : Jazz for Dinner and Wine
Альбом/Исполнитель : Restaurant Music
Трек : Lounge Smooth Jazz
Трек/Положение : 12
Исполнитель : Restaurant Music
Композитор : Marco Rinaldo
Жанр : Jazz
Дата записи : 2024 / 2024-02-16
ISRC : PLS922229683
Авторское право : 2023 Jammed Jazz 2023 Jammed Jazz
UPC : 5904195867668
MEDIATYPE : album
ITUNESADVISORY : 1

Аудио
Формат : FLAC
Формат/Информация : Free Lossless Audio Codec
Продолжительность : 6 м. 24 с.
Вид битрейта : Переменный
Битрейт : 1 502 Кбит/сек
Каналы : 2 канала
Channel layout : L R
Частота : 44,1 КГц
Битовая глубина : 24 бит
Метод сжатия : Без потерь
Размер потока : 68,9 Мбайт (100%)
Библиотека кодирования : libFLAC 1.1.0 (2003-01-26)
MD5 of the unencoded content : 00000000000000000000000000000000

Общее
Полное имя : H:\Restaurant Music, Calming Jazz Relax Academy - Jazz for Dinner and Wine (2024)\13 - Beach Cocktails.flac
Формат : FLAC
Формат/Информация : Free Lossless Audio Codec
Размер файла : 48,8 Мбайт
Продолжительность : 4 м. 57 с.
Режим общего битрейта : Переменный
Общий поток : 1 376 Кбит/сек
Альбом : Jazz for Dinner and Wine
Альбом/Исполнитель : Restaurant Music
Трек : Beach Cocktails
Трек/Положение : 13
Исполнитель : Restaurant Music
Композитор : Marco Rinaldo
Жанр : Jazz
Дата записи : 2024 / 2024-02-16
ISRC : PLS922229684
Авторское право : 2023 Jammed Jazz 2023 Jammed Jazz
UPC : 5904195867668
MEDIATYPE : album
ITUNESADVISORY : 1

Аудио
Формат : FLAC
Формат/Информация : Free Lossless Audio Codec
Продолжительность : 4 м. 57 с.
Вид битрейта : Переменный
Битрейт : 1 376 Кбит/сек
Каналы : 2 канала
Channel layout : L R
Частота : 44,1 КГц
Битовая глубина : 24 бит
Метод сжатия : Без потерь
Размер потока : 48,8 Мбайт (100%)
Библиотека кодирования : libFLAC 1.1.0 (2003-01-26)
MD5 of the unencoded content : 00000000000000000000000000000000

Общее
Полное имя : H:\Restaurant Music, Calming Jazz Relax Academy - Jazz for Dinner and Wine (2024)\14 - Kissing Game.flac
Формат : FLAC
Формат/Информация : Free Lossless Audio Codec
Размер файла : 35,8 Мбайт
Продолжительность : 3 м. 48 с.
Режим общего битрейта : Переменный
Общий поток : 1 317 Кбит/сек
Альбом : Jazz for Dinner and Wine
Альбом/Исполнитель : Restaurant Music
Трек : Kissing Game
Трек/Положение : 14
Исполнитель : Restaurant Music
Композитор : Marco Rinaldo
Жанр : Jazz
Дата записи : 2024 / 2024-02-16
ISRC : PLS922229685
Авторское право : 2023 Jammed Jazz 2023 Jammed Jazz
UPC : 5904195867668
MEDIATYPE : album
ITUNESADVISORY : 1

Аудио
Формат : FLAC
Формат/Информация : Free Lossless Audio Codec
Продолжительность : 3 м. 48 с.
Вид битрейта : Переменный
Битрейт : 1 317 Кбит/сек
Каналы : 2 канала
Channel layout : L R
Частота : 44,1 КГц
Битовая глубина : 24 бит
Метод сжатия : Без потерь
Размер потока : 35,8 Мбайт (100%)
Библиотека кодирования : libFLAC 1.1.0 (2003-01-26)
MD5 of the unencoded content : 00000000000000000000000000000000

Общее
Полное имя : H:\Restaurant Music, Calming Jazz Relax Academy - Jazz for Dinner and Wine (2024)\15 - A Night to Remember.flac
Формат : FLAC
Формат/Информация : Free Lossless Audio Codec
Размер файла : 46,7 Мбайт
Продолжительность : 4 м. 53 с.
Режим общего битрейта : Переменный
Общий поток : 1 334 Кбит/сек
Альбом : Jazz for Dinner and Wine
Альбом/Исполнитель : Restaurant Music
Трек : A Night to Remember
Трек/Положение : 15
Исполнитель : Restaurant Music
Композитор : Marco Rinaldo
Жанр : Jazz
Дата записи : 2024 / 2024-02-16
ISRC : PLS922229686
Авторское право : 2023 Jammed Jazz 2023 Jammed Jazz
UPC : 5904195867668
MEDIATYPE : album
ITUNESADVISORY : 1

Аудио
Формат : FLAC
Формат/Информация : Free Lossless Audio Codec
Продолжительность : 4 м. 53 с.
Вид битрейта : Переменный
Битрейт : 1 334 Кбит/сек
Каналы : 2 канала
Channel layout : L R
Частота : 44,1 КГц
Битовая глубина : 24 бит
Метод сжатия : Без потерь
Размер потока : 46,7 Мбайт (100%)
Библиотека кодирования : libFLAC 1.1.0 (2003-01-26)
MD5 of the unencoded content : 00000000000000000000000000000000

Общее
Полное имя : H:\Restaurant Music, Calming Jazz Relax Academy - Jazz for Dinner and Wine (2024)\Cover.jpg
Формат : JPEG
Размер файла : 43,2 Кбайт

Изображения
Формат : JPEG
Ширина : 400 пикселей
Высота : 400 пикселей
Цветовое пространство : YUV
Субдискретизация насыщенности : 4:2:0
Битовая глубина : 8 бит
Метод сжатия : С потерями
Размер потока : 43,2 Кбайт (100%)

Общее
Полное имя : H:\Restaurant Music, Calming Jazz Relax Academy - Jazz for Dinner and Wine (2024)\foo_dr.txt
Размер файла : 1,67 Кбайт
Время раздачи: 24\7 на раздачи которым больше недели, не возвращаюсь (минимум до появления первых 3-5 скачавших)
[NNMClub.to]_Restaurant Music, Calming Jazz Relax Academy - Jazz for Dinner and Wine (2024).torrent
 Торрент:   Зарегистрирован
 
Зарегистрируйтесь и скачайте торрент!
13.5 KB

Примагнититься
 Зарегистрирован:   27 Фев 2024 07:34:51
 Размер:   636 MB  (
 Рейтинг:    (Голосов: 2)
 Поблагодарили:   50
 Проверка:   Оформление проверено модератором 27 Фев 2024 10:44:52
Как cкачать  ·  Как раздать  ·  Правильно оформить  ·  Поднять ратио!  
Показать сообщения:   
Начать новую тему   Ответить на тему    Торрент-трекер NNM-Club -> HD Audio и Многоканальная Музыка -> WEB-DL-Audio Часовой пояс: GMT + 3
Страница 1 из 1