Классический форум-трекер
canvas not supported
Нас вместе: 4 232 208

Romantic Moods Academy, Jazz Music Collection Zone - Jazz Music for a Romantic Mood (2024) [FLAC 24/44.1|Lossless|WEB-DL|tracks] <Jazz>


 
 
RSS
Начать новую тему   Ответить на тему    Торрент-трекер NNM-Club -> HD Audio и Многоканальная Музыка -> WEB-DL-Audio
Автор Сообщение
krochka1 ®
RG Music
Стаж: 3 года 4 мес.
Сообщений: 2401
Ratio: 384.716
Поблагодарили: 95674
100%
Romantic Moods Academy, Jazz Music Collection Zone - Jazz Music for a Romantic Mood (2024)
Жанр: Jazz
Издание: Recorded By Jazz
Источник: Qobuz
Продолжительность: 01:00:05

Кодек: FLAC 24/44.1
Битрейт: Lossless|WEB-DL
Тип рипа: tracks

Треклист:
01. Date at a Sushi Restaurant (3:21)
02. Background Jazz Music (3:52)
03. Fusion Chill (3:27)
04. Glass of Wine (5:07)
05. Lounge Bar Vibes (5:30)
06. Night with Saxophone Jazz (3:41)
07. Watching the Sunset (4:16)
08. One More Time (3:13)
09. Soft Touch (3:17)
10. Stay with Me Tonight (3:32)
11. Slow Romantico (5:41)
12. Need of the Heart (3:19)
13. Seductive Whispers (5:19)
14. Background for Intimate Moments (3:22)
15. Saxy Soul (3:07)
Общее
Полное имя : H:\Romantic Moods Academy, Jazz Music Collection Zone - Jazz Music for a Romantic Mood (2024)\01 - Date at a Sushi Restaurant.flac
Формат : FLAC
Формат/Информация : Free Lossless Audio Codec
Размер файла : 34,6 Мбайт
Продолжительность : 3 м. 21 с.
Режим общего битрейта : Переменный
Общий поток : 1 439 Кбит/сек
Альбом : Jazz Music for a Romantic Mood
Альбом/Исполнитель : Romantic Moods Academy
Трек : Date at a Sushi Restaurant
Трек/Положение : 01
Исполнитель : Romantic Moods Academy
Композитор : Marco Rinaldo
Жанр : Jazz
Дата записи : 2024 / 2024-02-06
ISRC : UKR4Q1969025
Авторское право : 2023 Recorded By Jazz 2023 Recorded By Jazz
UPC : 5904195912108
MEDIATYPE : album
ITUNESADVISORY : 1

Аудио
Формат : FLAC
Формат/Информация : Free Lossless Audio Codec
Продолжительность : 3 м. 21 с.
Вид битрейта : Переменный
Битрейт : 1 439 Кбит/сек
Каналы : 2 канала
Channel layout : L R
Частота : 44,1 КГц
Битовая глубина : 24 бит
Метод сжатия : Без потерь
Размер потока : 34,6 Мбайт (100%)
Библиотека кодирования : libFLAC 1.1.0 (2003-01-26)
MD5 of the unencoded content : 00000000000000000000000000000000

Общее
Полное имя : H:\Romantic Moods Academy, Jazz Music Collection Zone - Jazz Music for a Romantic Mood (2024)\02 - Background Jazz Music.flac
Формат : FLAC
Формат/Информация : Free Lossless Audio Codec
Размер файла : 40,1 Мбайт
Продолжительность : 3 м. 52 с.
Режим общего битрейта : Переменный
Общий поток : 1 447 Кбит/сек
Альбом : Jazz Music for a Romantic Mood
Альбом/Исполнитель : Romantic Moods Academy
Трек : Background Jazz Music
Трек/Положение : 02
Исполнитель : Romantic Moods Academy
Композитор : Marco Rinaldo
Жанр : Jazz
Дата записи : 2024 / 2024-02-06
ISRC : UKR4Q1969026
Авторское право : 2023 Recorded By Jazz 2023 Recorded By Jazz
UPC : 5904195912108
MEDIATYPE : album
ITUNESADVISORY : 1

Аудио
Формат : FLAC
Формат/Информация : Free Lossless Audio Codec
Продолжительность : 3 м. 52 с.
Вид битрейта : Переменный
Битрейт : 1 446 Кбит/сек
Каналы : 2 канала
Channel layout : L R
Частота : 44,1 КГц
Битовая глубина : 24 бит
Метод сжатия : Без потерь
Размер потока : 40,1 Мбайт (100%)
Библиотека кодирования : libFLAC 1.1.0 (2003-01-26)
MD5 of the unencoded content : 00000000000000000000000000000000

Общее
Полное имя : H:\Romantic Moods Academy, Jazz Music Collection Zone - Jazz Music for a Romantic Mood (2024)\03 - Fusion Chill.flac
Формат : FLAC
Формат/Информация : Free Lossless Audio Codec
Размер файла : 35,7 Мбайт
Продолжительность : 3 м. 26 с.
Режим общего битрейта : Переменный
Общий поток : 1 449 Кбит/сек
Альбом : Jazz Music for a Romantic Mood
Альбом/Исполнитель : Romantic Moods Academy
Трек : Fusion Chill
Трек/Положение : 03
Исполнитель : Romantic Moods Academy
Композитор : Marco Rinaldo
Жанр : Jazz
Дата записи : 2024 / 2024-02-06
ISRC : UKR4Q1969027
Авторское право : 2023 Recorded By Jazz 2023 Recorded By Jazz
UPC : 5904195912108
MEDIATYPE : album
ITUNESADVISORY : 1

Аудио
Формат : FLAC
Формат/Информация : Free Lossless Audio Codec
Продолжительность : 3 м. 26 с.
Вид битрейта : Переменный
Битрейт : 1 449 Кбит/сек
Каналы : 2 канала
Channel layout : L R
Частота : 44,1 КГц
Битовая глубина : 24 бит
Метод сжатия : Без потерь
Размер потока : 35,7 Мбайт (100%)
Библиотека кодирования : libFLAC 1.1.0 (2003-01-26)
MD5 of the unencoded content : 00000000000000000000000000000000

Общее
Полное имя : H:\Romantic Moods Academy, Jazz Music Collection Zone - Jazz Music for a Romantic Mood (2024)\04 - Glass of Wine.flac
Формат : FLAC
Формат/Информация : Free Lossless Audio Codec
Размер файла : 51,5 Мбайт
Продолжительность : 5 м. 6 с.
Режим общего битрейта : Переменный
Общий поток : 1 410 Кбит/сек
Альбом : Jazz Music for a Romantic Mood
Альбом/Исполнитель : Romantic Moods Academy
Трек : Glass of Wine
Трек/Положение : 04
Исполнитель : Romantic Moods Academy
Композитор : Marco Rinaldo
Жанр : Jazz
Дата записи : 2024 / 2024-02-06
ISRC : UKR4Q1969028
Авторское право : 2023 Recorded By Jazz 2023 Recorded By Jazz
UPC : 5904195912108
MEDIATYPE : album
ITUNESADVISORY : 1

Аудио
Формат : FLAC
Формат/Информация : Free Lossless Audio Codec
Продолжительность : 5 м. 6 с.
Вид битрейта : Переменный
Битрейт : 1 410 Кбит/сек
Каналы : 2 канала
Channel layout : L R
Частота : 44,1 КГц
Битовая глубина : 24 бит
Метод сжатия : Без потерь
Размер потока : 51,5 Мбайт (100%)
Библиотека кодирования : libFLAC 1.1.0 (2003-01-26)
MD5 of the unencoded content : 00000000000000000000000000000000

Общее
Полное имя : H:\Romantic Moods Academy, Jazz Music Collection Zone - Jazz Music for a Romantic Mood (2024)\05 - Lounge Bar Vibes.flac
Формат : FLAC
Формат/Информация : Free Lossless Audio Codec
Размер файла : 52,7 Мбайт
Продолжительность : 5 м. 29 с.
Режим общего битрейта : Переменный
Общий поток : 1 340 Кбит/сек
Альбом : Jazz Music for a Romantic Mood
Альбом/Исполнитель : Romantic Moods Academy
Трек : Lounge Bar Vibes
Трек/Положение : 05
Исполнитель : Romantic Moods Academy
Композитор : Marco Rinaldo
Жанр : Jazz
Дата записи : 2024 / 2024-02-06
ISRC : UKR4Q1969029
Авторское право : 2023 Recorded By Jazz 2023 Recorded By Jazz
UPC : 5904195912108
MEDIATYPE : album
ITUNESADVISORY : 1

Аудио
Формат : FLAC
Формат/Информация : Free Lossless Audio Codec
Продолжительность : 5 м. 29 с.
Вид битрейта : Переменный
Битрейт : 1 340 Кбит/сек
Каналы : 2 канала
Channel layout : L R
Частота : 44,1 КГц
Битовая глубина : 24 бит
Метод сжатия : Без потерь
Размер потока : 52,7 Мбайт (100%)
Библиотека кодирования : libFLAC 1.1.0 (2003-01-26)
MD5 of the unencoded content : 00000000000000000000000000000000

Общее
Полное имя : H:\Romantic Moods Academy, Jazz Music Collection Zone - Jazz Music for a Romantic Mood (2024)\06 - Night with Saxophone Jazz.flac
Формат : FLAC
Формат/Информация : Free Lossless Audio Codec
Размер файла : 38,9 Мбайт
Продолжительность : 3 м. 41 с.
Режим общего битрейта : Переменный
Общий поток : 1 474 Кбит/сек
Альбом : Jazz Music for a Romantic Mood
Альбом/Исполнитель : Romantic Moods Academy
Трек : Night with Saxophone Jazz
Трек/Положение : 06
Исполнитель : Romantic Moods Academy
Композитор : Marco Rinaldo
Жанр : Jazz
Дата записи : 2024 / 2024-02-06
ISRC : UKR4Q1969030
Авторское право : 2023 Recorded By Jazz 2023 Recorded By Jazz
UPC : 5904195912108
MEDIATYPE : album
ITUNESADVISORY : 1

Аудио
Формат : FLAC
Формат/Информация : Free Lossless Audio Codec
Продолжительность : 3 м. 41 с.
Вид битрейта : Переменный
Битрейт : 1 474 Кбит/сек
Каналы : 2 канала
Channel layout : L R
Частота : 44,1 КГц
Битовая глубина : 24 бит
Метод сжатия : Без потерь
Размер потока : 38,9 Мбайт (100%)
Библиотека кодирования : libFLAC 1.1.0 (2003-01-26)
MD5 of the unencoded content : 00000000000000000000000000000000

Общее
Полное имя : H:\Romantic Moods Academy, Jazz Music Collection Zone - Jazz Music for a Romantic Mood (2024)\07 - Watching the Sunset.flac
Формат : FLAC
Формат/Информация : Free Lossless Audio Codec
Размер файла : 41,4 Мбайт
Продолжительность : 4 м. 16 с.
Режим общего битрейта : Переменный
Общий поток : 1 354 Кбит/сек
Альбом : Jazz Music for a Romantic Mood
Альбом/Исполнитель : Romantic Moods Academy
Трек : Watching the Sunset
Трек/Положение : 07
Исполнитель : Romantic Moods Academy
Композитор : Marco Rinaldo
Жанр : Jazz
Дата записи : 2024 / 2024-02-06
ISRC : UKR4Q1969031
Авторское право : 2023 Recorded By Jazz 2023 Recorded By Jazz
UPC : 5904195912108
MEDIATYPE : album
ITUNESADVISORY : 1

Аудио
Формат : FLAC
Формат/Информация : Free Lossless Audio Codec
Продолжительность : 4 м. 16 с.
Вид битрейта : Переменный
Битрейт : 1 354 Кбит/сек
Каналы : 2 канала
Channel layout : L R
Частота : 44,1 КГц
Битовая глубина : 24 бит
Метод сжатия : Без потерь
Размер потока : 41,4 Мбайт (100%)
Библиотека кодирования : libFLAC 1.1.0 (2003-01-26)
MD5 of the unencoded content : 00000000000000000000000000000000

Общее
Полное имя : H:\Romantic Moods Academy, Jazz Music Collection Zone - Jazz Music for a Romantic Mood (2024)\08 - One More Time.flac
Формат : FLAC
Формат/Информация : Free Lossless Audio Codec
Размер файла : 34,6 Мбайт
Продолжительность : 3 м. 13 с.
Режим общего битрейта : Переменный
Общий поток : 1 505 Кбит/сек
Альбом : Jazz Music for a Romantic Mood
Альбом/Исполнитель : Romantic Moods Academy
Трек : One More Time
Трек/Положение : 08
Исполнитель : Romantic Moods Academy
Композитор : Marco Rinaldo
Жанр : Jazz
Дата записи : 2024 / 2024-02-06
ISRC : UKR4Q1969032
Авторское право : 2023 Recorded By Jazz 2023 Recorded By Jazz
UPC : 5904195912108
MEDIATYPE : album
ITUNESADVISORY : 1

Аудио
Формат : FLAC
Формат/Информация : Free Lossless Audio Codec
Продолжительность : 3 м. 13 с.
Вид битрейта : Переменный
Битрейт : 1 505 Кбит/сек
Каналы : 2 канала
Channel layout : L R
Частота : 44,1 КГц
Битовая глубина : 24 бит
Метод сжатия : Без потерь
Размер потока : 34,6 Мбайт (100%)
Библиотека кодирования : libFLAC 1.1.0 (2003-01-26)
MD5 of the unencoded content : 00000000000000000000000000000000

Общее
Полное имя : H:\Romantic Moods Academy, Jazz Music Collection Zone - Jazz Music for a Romantic Mood (2024)\09 - Soft Touch.flac
Формат : FLAC
Формат/Информация : Free Lossless Audio Codec
Размер файла : 34,8 Мбайт
Продолжительность : 3 м. 17 с.
Режим общего битрейта : Переменный
Общий поток : 1 481 Кбит/сек
Альбом : Jazz Music for a Romantic Mood
Альбом/Исполнитель : Romantic Moods Academy
Трек : Soft Touch
Трек/Положение : 09
Исполнитель : Romantic Moods Academy
Композитор : Marco Rinaldo
Жанр : Jazz
Дата записи : 2024 / 2024-02-06
ISRC : UKR4Q1969033
Авторское право : 2023 Recorded By Jazz 2023 Recorded By Jazz
UPC : 5904195912108
MEDIATYPE : album
ITUNESADVISORY : 1

Аудио
Формат : FLAC
Формат/Информация : Free Lossless Audio Codec
Продолжительность : 3 м. 17 с.
Вид битрейта : Переменный
Битрейт : 1 481 Кбит/сек
Каналы : 2 канала
Channel layout : L R
Частота : 44,1 КГц
Битовая глубина : 24 бит
Метод сжатия : Без потерь
Размер потока : 34,8 Мбайт (100%)
Библиотека кодирования : libFLAC 1.1.0 (2003-01-26)
MD5 of the unencoded content : 00000000000000000000000000000000

Общее
Полное имя : H:\Romantic Moods Academy, Jazz Music Collection Zone - Jazz Music for a Romantic Mood (2024)\10 - Stay with Me Tonight.flac
Формат : FLAC
Формат/Информация : Free Lossless Audio Codec
Размер файла : 39,6 Мбайт
Продолжительность : 3 м. 32 с.
Режим общего битрейта : Переменный
Общий поток : 1 566 Кбит/сек
Альбом : Jazz Music for a Romantic Mood
Альбом/Исполнитель : Romantic Moods Academy
Трек : Stay with Me Tonight
Трек/Положение : 10
Исполнитель : Romantic Moods Academy
Композитор : Marco Rinaldo
Жанр : Jazz
Дата записи : 2024 / 2024-02-06
ISRC : UKR4Q1969034
Авторское право : 2023 Recorded By Jazz 2023 Recorded By Jazz
UPC : 5904195912108
MEDIATYPE : album
ITUNESADVISORY : 1

Аудио
Формат : FLAC
Формат/Информация : Free Lossless Audio Codec
Продолжительность : 3 м. 32 с.
Вид битрейта : Переменный
Битрейт : 1 566 Кбит/сек
Каналы : 2 канала
Channel layout : L R
Частота : 44,1 КГц
Битовая глубина : 24 бит
Метод сжатия : Без потерь
Размер потока : 39,6 Мбайт (100%)
Библиотека кодирования : libFLAC 1.1.0 (2003-01-26)
MD5 of the unencoded content : 00000000000000000000000000000000

Общее
Полное имя : H:\Romantic Moods Academy, Jazz Music Collection Zone - Jazz Music for a Romantic Mood (2024)\11 - Slow Romantico.flac
Формат : FLAC
Формат/Информация : Free Lossless Audio Codec
Размер файла : 58,7 Мбайт
Продолжительность : 5 м. 41 с.
Режим общего битрейта : Переменный
Общий поток : 1 441 Кбит/сек
Альбом : Jazz Music for a Romantic Mood
Альбом/Исполнитель : Romantic Moods Academy
Трек : Slow Romantico
Трек/Положение : 11
Исполнитель : Romantic Moods Academy
Композитор : Marco Rinaldo
Жанр : Jazz
Дата записи : 2024 / 2024-02-06
ISRC : UKR4Q1969035
Авторское право : 2023 Recorded By Jazz 2023 Recorded By Jazz
UPC : 5904195912108
MEDIATYPE : album
ITUNESADVISORY : 1

Аудио
Формат : FLAC
Формат/Информация : Free Lossless Audio Codec
Продолжительность : 5 м. 41 с.
Вид битрейта : Переменный
Битрейт : 1 441 Кбит/сек
Каналы : 2 канала
Channel layout : L R
Частота : 44,1 КГц
Битовая глубина : 24 бит
Метод сжатия : Без потерь
Размер потока : 58,6 Мбайт (100%)
Библиотека кодирования : libFLAC 1.1.0 (2003-01-26)
MD5 of the unencoded content : 00000000000000000000000000000000

Общее
Полное имя : H:\Romantic Moods Academy, Jazz Music Collection Zone - Jazz Music for a Romantic Mood (2024)\12 - Need of the Heart.flac
Формат : FLAC
Формат/Информация : Free Lossless Audio Codec
Размер файла : 34,4 Мбайт
Продолжительность : 3 м. 18 с.
Режим общего битрейта : Переменный
Общий поток : 1 453 Кбит/сек
Альбом : Jazz Music for a Romantic Mood
Альбом/Исполнитель : Romantic Moods Academy
Трек : Need of the Heart
Трек/Положение : 12
Исполнитель : Romantic Moods Academy
Композитор : Marco Rinaldo
Жанр : Jazz
Дата записи : 2024 / 2024-02-06
ISRC : UKR4Q1969036
Авторское право : 2023 Recorded By Jazz 2023 Recorded By Jazz
UPC : 5904195912108
MEDIATYPE : album
ITUNESADVISORY : 1

Аудио
Формат : FLAC
Формат/Информация : Free Lossless Audio Codec
Продолжительность : 3 м. 18 с.
Вид битрейта : Переменный
Битрейт : 1 453 Кбит/сек
Каналы : 2 канала
Channel layout : L R
Частота : 44,1 КГц
Битовая глубина : 24 бит
Метод сжатия : Без потерь
Размер потока : 34,4 Мбайт (100%)
Библиотека кодирования : libFLAC 1.1.0 (2003-01-26)
MD5 of the unencoded content : 00000000000000000000000000000000

Общее
Полное имя : H:\Romantic Moods Academy, Jazz Music Collection Zone - Jazz Music for a Romantic Mood (2024)\13 - Seductive Whispers.flac
Формат : FLAC
Формат/Информация : Free Lossless Audio Codec
Размер файла : 52,3 Мбайт
Продолжительность : 5 м. 18 с.
Режим общего битрейта : Переменный
Общий поток : 1 377 Кбит/сек
Альбом : Jazz Music for a Romantic Mood
Альбом/Исполнитель : Romantic Moods Academy
Трек : Seductive Whispers
Трек/Положение : 13
Исполнитель : Romantic Moods Academy
Композитор : Marco Rinaldo
Жанр : Jazz
Дата записи : 2024 / 2024-02-06
ISRC : UKR4Q1969037
Авторское право : 2023 Recorded By Jazz 2023 Recorded By Jazz
UPC : 5904195912108
MEDIATYPE : album
ITUNESADVISORY : 1

Аудио
Формат : FLAC
Формат/Информация : Free Lossless Audio Codec
Продолжительность : 5 м. 18 с.
Вид битрейта : Переменный
Битрейт : 1 377 Кбит/сек
Каналы : 2 канала
Channel layout : L R
Частота : 44,1 КГц
Битовая глубина : 24 бит
Метод сжатия : Без потерь
Размер потока : 52,3 Мбайт (100%)
Библиотека кодирования : libFLAC 1.1.0 (2003-01-26)
MD5 of the unencoded content : 00000000000000000000000000000000

Общее
Полное имя : H:\Romantic Moods Academy, Jazz Music Collection Zone - Jazz Music for a Romantic Mood (2024)\14 - Background for Intimate Moments.flac
Формат : FLAC
Формат/Информация : Free Lossless Audio Codec
Размер файла : 35,0 Мбайт
Продолжительность : 3 м. 21 с.
Режим общего битрейта : Переменный
Общий поток : 1 458 Кбит/сек
Альбом : Jazz Music for a Romantic Mood
Альбом/Исполнитель : Romantic Moods Academy
Трек : Background for Intimate Moments
Трек/Положение : 14
Исполнитель : Romantic Moods Academy
Композитор : Marco Rinaldo
Жанр : Jazz
Дата записи : 2024 / 2024-02-06
ISRC : UKR4Q1969038
Авторское право : 2023 Recorded By Jazz 2023 Recorded By Jazz
UPC : 5904195912108
MEDIATYPE : album
ITUNESADVISORY : 1

Аудио
Формат : FLAC
Формат/Информация : Free Lossless Audio Codec
Продолжительность : 3 м. 21 с.
Вид битрейта : Переменный
Битрейт : 1 458 Кбит/сек
Каналы : 2 канала
Channel layout : L R
Частота : 44,1 КГц
Битовая глубина : 24 бит
Метод сжатия : Без потерь
Размер потока : 35,0 Мбайт (100%)
Библиотека кодирования : libFLAC 1.1.0 (2003-01-26)
MD5 of the unencoded content : 00000000000000000000000000000000

Общее
Полное имя : H:\Romantic Moods Academy, Jazz Music Collection Zone - Jazz Music for a Romantic Mood (2024)\15 - Saxy Soul.flac
Формат : FLAC
Формат/Информация : Free Lossless Audio Codec
Размер файла : 31,4 Мбайт
Продолжительность : 3 м. 7 с.
Режим общего битрейта : Переменный
Общий поток : 1 405 Кбит/сек
Альбом : Jazz Music for a Romantic Mood
Альбом/Исполнитель : Romantic Moods Academy
Трек : Saxy Soul
Трек/Положение : 15
Исполнитель : Romantic Moods Academy
Композитор : Marco Rinaldo
Жанр : Jazz
Дата записи : 2024 / 2024-02-06
ISRC : UKR4Q1969039
Авторское право : 2023 Recorded By Jazz 2023 Recorded By Jazz
UPC : 5904195912108
MEDIATYPE : album
ITUNESADVISORY : 1

Аудио
Формат : FLAC
Формат/Информация : Free Lossless Audio Codec
Продолжительность : 3 м. 7 с.
Вид битрейта : Переменный
Битрейт : 1 405 Кбит/сек
Каналы : 2 канала
Channel layout : L R
Частота : 44,1 КГц
Битовая глубина : 24 бит
Метод сжатия : Без потерь
Размер потока : 31,4 Мбайт (100%)
Библиотека кодирования : libFLAC 1.1.0 (2003-01-26)
MD5 of the unencoded content : 00000000000000000000000000000000

Общее
Полное имя : H:\Romantic Moods Academy, Jazz Music Collection Zone - Jazz Music for a Romantic Mood (2024)\Cover.jpg
Формат : JPEG
Размер файла : 32,4 Кбайт

Изображения
Формат : JPEG
Ширина : 400 пикселей
Высота : 400 пикселей
Цветовое пространство : YUV
Субдискретизация насыщенности : 4:2:0
Битовая глубина : 8 бит
Метод сжатия : С потерями
Размер потока : 32,4 Кбайт (100%)

Общее
Полное имя : H:\Romantic Moods Academy, Jazz Music Collection Zone - Jazz Music for a Romantic Mood (2024)\foo_dr.txt
Размер файла : 1,70 Кбайт
Время раздачи: 24\7 на раздачи которым больше недели, не возвращаюсь (минимум до появления первых 3-5 скачавших)
[NNMClub.to]_Romantic Moods Academy, Jazz Music Collection Zone - Jazz Music for a Romantic Mood (2024).torrent
 Торрент: Платиновая раздача  Зарегистрирован
 
Скачать


Примагнититься
 Зарегистрирован:   27 Фев 2024 07:41:47
 Размер:   616 MB  (
 Рейтинг:    (Голосов: 4)
 Поблагодарили:   54
 Проверка:   Оформление проверено модератором 27 Фев 2024 10:44:26
Как cкачать  ·  Как раздать  ·  Правильно оформить  ·  Поднять ратио!  
Показать сообщения:   
Начать новую тему   Ответить на тему    Торрент-трекер NNM-Club -> HD Audio и Многоканальная Музыка -> WEB-DL-Audio Часовой пояс: GMT + 3
Страница 1 из 1