Классический форум-трекер
canvas not supported
Нас вместе: 4 232 209

Twilight Tapirs - Great Lake Tales (2024) [FLAC 24/44.1|Lossless|WEB-DL|tracks] <Jazz, Vocal Jazz>


 
 
RSS
Начать новую тему   Ответить на тему    Торрент-трекер NNM-Club -> HD Audio и Многоканальная Музыка -> WEB-DL-Audio
Автор Сообщение
krochka1 ®
RG Music
Стаж: 3 года 4 мес.
Сообщений: 2401
Ratio: 384.716
Поблагодарили: 95676
100%
Twilight Tapirs - Great Lake Tales (2024)
Жанр: Jazz, Vocal Jazz
Издание: LS3 International
Источник: Qobuz
Продолжительность: 00:32:36

Кодек: FLAC 24/44.1
Битрейт: Lossless|WEB-DL
Тип рипа: tracks

Треклист:
01. Little Clipper Ships (0:58)
02. Wolverine Train (3:34)
03. Thy Fearful Symmetry (3:08)
04. Koi Fish Shangri-La (3:39)
05. The "Go to Hell" Song (3:53)
06. Public Square Blues (4:25)
07. Good Lovin' (3:12)
08. Dundee, MI (4:46)
09. Saying Goodbye on St. Clair Street (5:01)
Общее
Полное имя : H:\Twilight Tapirs - Great Lake Tales (2024)\01 - Little Clipper Ships.flac
Формат : FLAC
Формат/Информация : Free Lossless Audio Codec
Размер файла : 9,94 Мбайт
Продолжительность : 58 с. 205 мс.
Режим общего битрейта : Переменный
Общий поток : 1 432 Кбит/сек
Альбом : Great Lake Tales
Альбом/Исполнитель : Twilight Tapirs
Трек : Little Clipper Ships
Трек/Положение : 1
Исполнитель : Twilight Tapirs
Композитор : Louis H. Stevens III
Жанр : Jazz
Дата записи : 2024 / 2024-02-16
ISRC : QZFZ32436266
Авторское право : 2024 LS3 International
UPC : 0198083906743
MEDIATYPE : album
ITUNESADVISORY : 1

Аудио
Формат : FLAC
Формат/Информация : Free Lossless Audio Codec
Продолжительность : 58 с. 205 мс.
Вид битрейта : Переменный
Битрейт : 1 431 Кбит/сек
Каналы : 2 канала
Channel layout : L R
Частота : 44,1 КГц
Битовая глубина : 24 бит
Метод сжатия : Без потерь
Размер потока : 9,93 Мбайт (100%)
Библиотека кодирования : libFLAC 1.1.0 (2003-01-26)
MD5 of the unencoded content : 00000000000000000000000000000000

Общее
Полное имя : H:\Twilight Tapirs - Great Lake Tales (2024)\02 - Wolverine Train.flac
Формат : FLAC
Формат/Информация : Free Lossless Audio Codec
Размер файла : 39,9 Мбайт
Продолжительность : 3 м. 34 с.
Режим общего битрейта : Переменный
Общий поток : 1 565 Кбит/сек
Альбом : Great Lake Tales
Альбом/Исполнитель : Twilight Tapirs
Трек : Wolverine Train
Трек/Положение : 2
Исполнитель : Twilight Tapirs
Композитор : Louis H. Stevens III
Жанр : Jazz
Дата записи : 2024 / 2024-02-16
ISRC : QZHN82359422
Авторское право : 2024 LS3 International
UPC : 0198083906743
MEDIATYPE : album
ITUNESADVISORY : 1

Аудио
Формат : FLAC
Формат/Информация : Free Lossless Audio Codec
Продолжительность : 3 м. 34 с.
Вид битрейта : Переменный
Битрейт : 1 564 Кбит/сек
Каналы : 2 канала
Channel layout : L R
Частота : 44,1 КГц
Битовая глубина : 24 бит
Метод сжатия : Без потерь
Размер потока : 39,9 Мбайт (100%)
Библиотека кодирования : libFLAC 1.1.0 (2003-01-26)
MD5 of the unencoded content : 00000000000000000000000000000000

Общее
Полное имя : H:\Twilight Tapirs - Great Lake Tales (2024)\03 - Thy Fearful Symmetry.flac
Формат : FLAC
Формат/Информация : Free Lossless Audio Codec
Размер файла : 30,6 Мбайт
Продолжительность : 3 м. 7 с.
Режим общего битрейта : Переменный
Общий поток : 1 367 Кбит/сек
Альбом : Great Lake Tales
Альбом/Исполнитель : Twilight Tapirs
Трек : Thy Fearful Symmetry
Трек/Положение : 3
Исполнитель : Twilight Tapirs
Композитор : Louis H. Stevens III
Жанр : Jazz
Дата записи : 2024 / 2024-02-16
ISRC : QZFZ32436267
Авторское право : 2024 LS3 International
UPC : 0198083906743
MEDIATYPE : album
ITUNESADVISORY : 1

Аудио
Формат : FLAC
Формат/Информация : Free Lossless Audio Codec
Продолжительность : 3 м. 7 с.
Вид битрейта : Переменный
Битрейт : 1 367 Кбит/сек
Каналы : 2 канала
Channel layout : L R
Частота : 44,1 КГц
Битовая глубина : 24 бит
Метод сжатия : Без потерь
Размер потока : 30,6 Мбайт (100%)
Библиотека кодирования : libFLAC 1.1.0 (2003-01-26)
MD5 of the unencoded content : 00000000000000000000000000000000

Общее
Полное имя : H:\Twilight Tapirs - Great Lake Tales (2024)\04 - Koi Fish Shangri-La.flac
Формат : FLAC
Формат/Информация : Free Lossless Audio Codec
Размер файла : 39,0 Мбайт
Продолжительность : 3 м. 39 с.
Режим общего битрейта : Переменный
Общий поток : 1 492 Кбит/сек
Альбом : Great Lake Tales
Альбом/Исполнитель : Twilight Tapirs
Трек : Koi Fish Shangri-La
Трек/Положение : 4
Исполнитель : Twilight Tapirs
Композитор : Louis H. Stevens III
Жанр : Jazz
Дата записи : 2024 / 2024-02-16
ISRC : QZFZ32436268
Авторское право : 2024 LS3 International
UPC : 0198083906743
MEDIATYPE : album
ITUNESADVISORY : 1

Аудио
Формат : FLAC
Формат/Информация : Free Lossless Audio Codec
Продолжительность : 3 м. 39 с.
Вид битрейта : Переменный
Битрейт : 1 492 Кбит/сек
Каналы : 2 канала
Channel layout : L R
Частота : 44,1 КГц
Битовая глубина : 24 бит
Метод сжатия : Без потерь
Размер потока : 39,0 Мбайт (100%)
Библиотека кодирования : libFLAC 1.1.0 (2003-01-26)
MD5 of the unencoded content : 00000000000000000000000000000000

Общее
Полное имя : H:\Twilight Tapirs - Great Lake Tales (2024)\05 - The _Go to Hell_ Song.flac
Формат : FLAC
Формат/Информация : Free Lossless Audio Codec
Размер файла : 45,2 Мбайт
Продолжительность : 3 м. 53 с.
Режим общего битрейта : Переменный
Общий поток : 1 626 Кбит/сек
Альбом : Great Lake Tales
Альбом/Исполнитель : Twilight Tapirs
Трек : The "Go to Hell" Song
Трек/Положение : 5
Исполнитель : Twilight Tapirs
Композитор : Louis H. Stevens III
Жанр : Jazz
Дата записи : 2024 / 2024-02-16
ISRC : QZRP52303741
Авторское право : 2024 LS3 International
UPC : 0198083906743
MEDIATYPE : album
ITUNESADVISORY : 1

Аудио
Формат : FLAC
Формат/Информация : Free Lossless Audio Codec
Продолжительность : 3 м. 53 с.
Вид битрейта : Переменный
Битрейт : 1 626 Кбит/сек
Каналы : 2 канала
Channel layout : L R
Частота : 44,1 КГц
Битовая глубина : 24 бит
Метод сжатия : Без потерь
Размер потока : 45,2 Мбайт (100%)
Библиотека кодирования : libFLAC 1.1.0 (2003-01-26)
MD5 of the unencoded content : 00000000000000000000000000000000

Общее
Полное имя : H:\Twilight Tapirs - Great Lake Tales (2024)\06 - Public Square Blues.flac
Формат : FLAC
Формат/Информация : Free Lossless Audio Codec
Размер файла : 51,8 Мбайт
Продолжительность : 4 м. 24 с.
Режим общего битрейта : Переменный
Общий поток : 1 640 Кбит/сек
Альбом : Great Lake Tales
Альбом/Исполнитель : Twilight Tapirs
Трек : Public Square Blues
Трек/Положение : 6
Исполнитель : Twilight Tapirs
Композитор : Louis H. Stevens III
Жанр : Jazz
Дата записи : 2024 / 2024-02-16
ISRC : QZFZ32436269
Авторское право : 2024 LS3 International
UPC : 0198083906743
MEDIATYPE : album
ITUNESADVISORY : 1

Аудио
Формат : FLAC
Формат/Информация : Free Lossless Audio Codec
Продолжительность : 4 м. 24 с.
Вид битрейта : Переменный
Битрейт : 1 640 Кбит/сек
Каналы : 2 канала
Channel layout : L R
Частота : 44,1 КГц
Битовая глубина : 24 бит
Метод сжатия : Без потерь
Размер потока : 51,8 Мбайт (100%)
Библиотека кодирования : libFLAC 1.1.0 (2003-01-26)
MD5 of the unencoded content : 00000000000000000000000000000000

Общее
Полное имя : H:\Twilight Tapirs - Great Lake Tales (2024)\07 - Good Lovin'.flac
Формат : FLAC
Формат/Информация : Free Lossless Audio Codec
Размер файла : 33,5 Мбайт
Продолжительность : 3 м. 12 с.
Режим общего битрейта : Переменный
Общий поток : 1 465 Кбит/сек
Альбом : Great Lake Tales
Альбом/Исполнитель : Twilight Tapirs
Трек : Good Lovin'
Трек/Положение : 7
Исполнитель : Twilight Tapirs
Композитор : Louis H. Stevens III
Жанр : Jazz
Дата записи : 2024 / 2024-02-16
ISRC : QZFZ32436270
Авторское право : 2024 LS3 International
UPC : 0198083906743
MEDIATYPE : album
ITUNESADVISORY : 1

Аудио
Формат : FLAC
Формат/Информация : Free Lossless Audio Codec
Продолжительность : 3 м. 12 с.
Вид битрейта : Переменный
Битрейт : 1 465 Кбит/сек
Каналы : 2 канала
Channel layout : L R
Частота : 44,1 КГц
Битовая глубина : 24 бит
Метод сжатия : Без потерь
Размер потока : 33,5 Мбайт (100%)
Библиотека кодирования : libFLAC 1.1.0 (2003-01-26)
MD5 of the unencoded content : 00000000000000000000000000000000

Общее
Полное имя : H:\Twilight Tapirs - Great Lake Tales (2024)\08 - Dundee, MI.flac
Формат : FLAC
Формат/Информация : Free Lossless Audio Codec
Размер файла : 51,5 Мбайт
Продолжительность : 4 м. 45 с.
Режим общего битрейта : Переменный
Общий поток : 1 512 Кбит/сек
Альбом : Great Lake Tales
Альбом/Исполнитель : Twilight Tapirs
Трек : Dundee, MI
Трек/Положение : 8
Исполнитель : Twilight Tapirs
Композитор : Louis H. Stevens III
Жанр : Jazz
Дата записи : 2024 / 2024-02-16
ISRC : QZFZ32436271
Авторское право : 2024 LS3 International
UPC : 0198083906743
MEDIATYPE : album
ITUNESADVISORY : 1

Аудио
Формат : FLAC
Формат/Информация : Free Lossless Audio Codec
Продолжительность : 4 м. 45 с.
Вид битрейта : Переменный
Битрейт : 1 512 Кбит/сек
Каналы : 2 канала
Channel layout : L R
Частота : 44,1 КГц
Битовая глубина : 24 бит
Метод сжатия : Без потерь
Размер потока : 51,5 Мбайт (100%)
Библиотека кодирования : libFLAC 1.1.0 (2003-01-26)
MD5 of the unencoded content : 00000000000000000000000000000000

Общее
Полное имя : H:\Twilight Tapirs - Great Lake Tales (2024)\09 - Saying Goodbye on St. Clair Str.flac
Формат : FLAC
Формат/Информация : Free Lossless Audio Codec
Размер файла : 52,0 Мбайт
Продолжительность : 5 м. 1 с.
Режим общего битрейта : Переменный
Общий поток : 1 448 Кбит/сек
Альбом : Great Lake Tales
Альбом/Исполнитель : Twilight Tapirs
Трек : Saying Goodbye on St. Clair Street
Трек/Положение : 9
Исполнитель : Twilight Tapirs
Композитор : Louis H. Stevens III
Жанр : Jazz
Дата записи : 2024 / 2024-02-16
ISRC : QZPLR2284419
Авторское право : 2024 LS3 International
UPC : 0198083906743
MEDIATYPE : album
ITUNESADVISORY : 1

Аудио
Формат : FLAC
Формат/Информация : Free Lossless Audio Codec
Продолжительность : 5 м. 1 с.
Вид битрейта : Переменный
Битрейт : 1 448 Кбит/сек
Каналы : 2 канала
Channel layout : L R
Частота : 44,1 КГц
Битовая глубина : 24 бит
Метод сжатия : Без потерь
Размер потока : 52,0 Мбайт (100%)
Библиотека кодирования : libFLAC 1.1.0 (2003-01-26)
MD5 of the unencoded content : 00000000000000000000000000000000

Общее
Полное имя : H:\Twilight Tapirs - Great Lake Tales (2024)\Cover.jpg
Формат : JPEG
Размер файла : 92,5 Кбайт

Изображения
Формат : JPEG
Ширина : 400 пикселей
Высота : 400 пикселей
Цветовое пространство : YUV
Субдискретизация насыщенности : 4:2:0
Битовая глубина : 8 бит
Метод сжатия : С потерями
Размер потока : 92,5 Кбайт (100%)

Общее
Полное имя : H:\Twilight Tapirs - Great Lake Tales (2024)\foo_dr.txt
Размер файла : 1,31 Кбайт
Время раздачи: 24\7 на раздачи которым больше недели, не возвращаюсь (минимум до появления первых 3-5 скачавших)
[NNMClub.to]_Twilight Tapirs - Great Lake Tales (2024).torrent
 Торрент:   Зарегистрирован
 
Зарегистрируйтесь и скачайте торрент!
14.6 KB

Примагнититься
 Зарегистрирован:   27 Фев 2024 07:49:47
 Размер:   354 MB  (
 Рейтинг:    (Голосов: 0)
 Поблагодарили:   28
 Проверка:   Оформление проверено модератором 27 Фев 2024 10:44:11
Как cкачать  ·  Как раздать  ·  Правильно оформить  ·  Поднять ратио!  
Показать сообщения:   
Начать новую тему   Ответить на тему    Торрент-трекер NNM-Club -> HD Audio и Многоканальная Музыка -> WEB-DL-Audio Часовой пояс: GMT + 3
Страница 1 из 1