Классический форум-трекер
canvas not supported
Нас вместе: 4 232 202

Wojtek Stanisz Quartet - Szuflandia (2024) [FLAC 24/48|Lossless|WEB-DL|tracks] <Jazz Fusion & Jazz Rock>


 
 
RSS
Начать новую тему   Ответить на тему    Торрент-трекер NNM-Club -> HD Audio и Многоканальная Музыка -> WEB-DL-Audio
Автор Сообщение
krochka1 ®
RG Music
Стаж: 3 года 4 мес.
Сообщений: 2401
Ratio: 384.688
Поблагодарили: 95659
100%
Wojtek Stanisz Quartet - Szuflandia (2024)
Жанр: Jazz Fusion & Jazz Rock
Издание: VoiceMusic
Источник: Qobuz
Продолжительность: 01:04:55

Кодек: FLAC 24/48
Битрейт: Lossless|WEB-DL
Тип рипа: tracks

Треклист:
01. Szuflandia (7:09)
02. Matthew (9:36)
03. Intro to Requiem (3:44)
04. Requiem for Unknown (9:12)
05. 7 zbójów (8:48)
06. Flahjo (5:45)
07. WHTM (6:44)
08. Affection (3:40)
09. Arawujo (10:17)
Общее
Полное имя : H:\Wojtek Stanisz Quartet - Szuflandia (2024)\01 - Szuflandia.flac
Формат : FLAC
Формат/Информация : Free Lossless Audio Codec
Размер файла : 84,5 Мбайт
Продолжительность : 7 м. 8 с.
Режим общего битрейта : Переменный
Общий поток : 1 653 Кбит/сек
Альбом : Szuflandia
Альбом/Исполнитель : WOJTEK STANISZ QUARTET
Трек : Szuflandia
Трек/Положение : 1
Исполнитель : WOJTEK STANISZ QUARTET
Композитор : WOJTEK STANISZ
Жанр : Jazz fusion & Jazz rock
Дата записи : 2024 / 2024-02-14
ISRC : PL81M2100350
Авторское право : 2023 MUSIC CORNER RECORDS 2023 MUSIC CORNER RECORDS
UPC : 3617383752531
MEDIATYPE : album
ITUNESADVISORY : 1

Аудио
Формат : FLAC
Формат/Информация : Free Lossless Audio Codec
Продолжительность : 7 м. 8 с.
Вид битрейта : Переменный
Битрейт : 1 653 Кбит/сек
Каналы : 2 канала
Channel layout : L R
Частота : 48,0 КГц
Битовая глубина : 24 бит
Метод сжатия : Без потерь
Размер потока : 84,5 Мбайт (100%)
Библиотека кодирования : libFLAC 1.1.0 (2003-01-26)
MD5 of the unencoded content : 00000000000000000000000000000000

Общее
Полное имя : H:\Wojtek Stanisz Quartet - Szuflandia (2024)\02 - Matthew.flac
Формат : FLAC
Формат/Информация : Free Lossless Audio Codec
Размер файла : 110 Мбайт
Продолжительность : 9 м. 35 с.
Режим общего битрейта : Переменный
Общий поток : 1 605 Кбит/сек
Альбом : Szuflandia
Альбом/Исполнитель : WOJTEK STANISZ QUARTET
Трек : Matthew
Трек/Положение : 2
Исполнитель : WOJTEK STANISZ QUARTET
Композитор : WOJTEK STANISZ
Жанр : Jazz fusion & Jazz rock
Дата записи : 2024 / 2024-02-14
ISRC : PL81M2100351
Авторское право : 2023 MUSIC CORNER RECORDS 2023 MUSIC CORNER RECORDS
UPC : 3617383752531
MEDIATYPE : album
ITUNESADVISORY : 1

Аудио
Формат : FLAC
Формат/Информация : Free Lossless Audio Codec
Продолжительность : 9 м. 35 с.
Вид битрейта : Переменный
Битрейт : 1 604 Кбит/сек
Каналы : 2 канала
Channel layout : L R
Частота : 48,0 КГц
Битовая глубина : 24 бит
Метод сжатия : Без потерь
Размер потока : 110 Мбайт (100%)
Библиотека кодирования : libFLAC 1.1.0 (2003-01-26)
MD5 of the unencoded content : 00000000000000000000000000000000

Общее
Полное имя : H:\Wojtek Stanisz Quartet - Szuflandia (2024)\03 - Intro to Requiem.flac
Формат : FLAC
Формат/Информация : Free Lossless Audio Codec
Размер файла : 33,6 Мбайт
Продолжительность : 3 м. 43 с.
Режим общего битрейта : Переменный
Общий поток : 1 258 Кбит/сек
Альбом : Szuflandia
Альбом/Исполнитель : WOJTEK STANISZ QUARTET
Трек : Intro to Requiem
Трек/Положение : 3
Исполнитель : WOJTEK STANISZ QUARTET
Композитор : WOJTEK STANISZ
Жанр : Jazz fusion & Jazz rock
Дата записи : 2024 / 2024-02-14
ISRC : PL81M2100352
Авторское право : 2023 MUSIC CORNER RECORDS 2023 MUSIC CORNER RECORDS
UPC : 3617383752531
MEDIATYPE : album
ITUNESADVISORY : 1

Аудио
Формат : FLAC
Формат/Информация : Free Lossless Audio Codec
Продолжительность : 3 м. 43 с.
Вид битрейта : Переменный
Битрейт : 1 258 Кбит/сек
Каналы : 2 канала
Channel layout : L R
Частота : 48,0 КГц
Битовая глубина : 24 бит
Метод сжатия : Без потерь
Размер потока : 33,6 Мбайт (100%)
Библиотека кодирования : libFLAC 1.1.0 (2003-01-26)
MD5 of the unencoded content : 00000000000000000000000000000000

Общее
Полное имя : H:\Wojtek Stanisz Quartet - Szuflandia (2024)\04 - Requiem for Unknown.flac
Формат : FLAC
Формат/Информация : Free Lossless Audio Codec
Размер файла : 104 Мбайт
Продолжительность : 9 м. 11 с.
Режим общего битрейта : Переменный
Общий поток : 1 587 Кбит/сек
Альбом : Szuflandia
Альбом/Исполнитель : WOJTEK STANISZ QUARTET
Трек : Requiem for Unknown
Трек/Положение : 4
Исполнитель : WOJTEK STANISZ QUARTET
Композитор : WOJTEK STANISZ
Жанр : Jazz fusion & Jazz rock
Дата записи : 2024 / 2024-02-14
ISRC : PL81M2100353
Авторское право : 2023 MUSIC CORNER RECORDS 2023 MUSIC CORNER RECORDS
UPC : 3617383752531
MEDIATYPE : album
ITUNESADVISORY : 1

Аудио
Формат : FLAC
Формат/Информация : Free Lossless Audio Codec
Продолжительность : 9 м. 11 с.
Вид битрейта : Переменный
Битрейт : 1 587 Кбит/сек
Каналы : 2 канала
Channel layout : L R
Частота : 48,0 КГц
Битовая глубина : 24 бит
Метод сжатия : Без потерь
Размер потока : 104 Мбайт (100%)
Библиотека кодирования : libFLAC 1.1.0 (2003-01-26)
MD5 of the unencoded content : 00000000000000000000000000000000

Общее
Полное имя : H:\Wojtek Stanisz Quartet - Szuflandia (2024)\05 - 7 zbójów.flac
Формат : FLAC
Формат/Информация : Free Lossless Audio Codec
Размер файла : 102 Мбайт
Продолжительность : 8 м. 48 с.
Режим общего битрейта : Переменный
Общий поток : 1 618 Кбит/сек
Альбом : Szuflandia
Альбом/Исполнитель : WOJTEK STANISZ QUARTET
Трек : 7 zbójów
Трек/Положение : 5
Исполнитель : WOJTEK STANISZ QUARTET
Композитор : WOJTEK STANISZ
Жанр : Jazz fusion & Jazz rock
Дата записи : 2024 / 2024-02-14
ISRC : PL81M2100354
Авторское право : 2023 MUSIC CORNER RECORDS 2023 MUSIC CORNER RECORDS
UPC : 3617383752531
MEDIATYPE : album
ITUNESADVISORY : 1

Аудио
Формат : FLAC
Формат/Информация : Free Lossless Audio Codec
Продолжительность : 8 м. 48 с.
Вид битрейта : Переменный
Битрейт : 1 617 Кбит/сек
Каналы : 2 канала
Channel layout : L R
Частота : 48,0 КГц
Битовая глубина : 24 бит
Метод сжатия : Без потерь
Размер потока : 102 Мбайт (100%)
Библиотека кодирования : libFLAC 1.1.0 (2003-01-26)
MD5 of the unencoded content : 00000000000000000000000000000000

Общее
Полное имя : H:\Wojtek Stanisz Quartet - Szuflandia (2024)\06 - Flahjo.flac
Формат : FLAC
Формат/Информация : Free Lossless Audio Codec
Размер файла : 59,7 Мбайт
Продолжительность : 5 м. 44 с.
Режим общего битрейта : Переменный
Общий поток : 1 453 Кбит/сек
Альбом : Szuflandia
Альбом/Исполнитель : WOJTEK STANISZ QUARTET
Трек : Flahjo
Трек/Положение : 6
Исполнитель : WOJTEK STANISZ QUARTET
Композитор : WOJTEK STANISZ
Жанр : Jazz fusion & Jazz rock
Дата записи : 2024 / 2024-02-14
ISRC : PL81M2100355
Авторское право : 2023 MUSIC CORNER RECORDS 2023 MUSIC CORNER RECORDS
UPC : 3617383752531
MEDIATYPE : album
ITUNESADVISORY : 1

Аудио
Формат : FLAC
Формат/Информация : Free Lossless Audio Codec
Продолжительность : 5 м. 44 с.
Вид битрейта : Переменный
Битрейт : 1 453 Кбит/сек
Каналы : 2 канала
Channel layout : L R
Частота : 48,0 КГц
Битовая глубина : 24 бит
Метод сжатия : Без потерь
Размер потока : 59,7 Мбайт (100%)
Библиотека кодирования : libFLAC 1.1.0 (2003-01-26)
MD5 of the unencoded content : 00000000000000000000000000000000

Общее
Полное имя : H:\Wojtek Stanisz Quartet - Szuflandia (2024)\07 - WHTM.flac
Формат : FLAC
Формат/Информация : Free Lossless Audio Codec
Размер файла : 79,6 Мбайт
Продолжительность : 6 м. 43 с.
Режим общего битрейта : Переменный
Общий поток : 1 653 Кбит/сек
Альбом : Szuflandia
Альбом/Исполнитель : WOJTEK STANISZ QUARTET
Трек : WHTM
Трек/Положение : 7
Исполнитель : WOJTEK STANISZ QUARTET
Композитор : WOJTEK STANISZ
Жанр : Jazz fusion & Jazz rock
Дата записи : 2024 / 2024-02-14
ISRC : PL81M2100356
Авторское право : 2023 MUSIC CORNER RECORDS 2023 MUSIC CORNER RECORDS
UPC : 3617383752531
MEDIATYPE : album
ITUNESADVISORY : 1

Аудио
Формат : FLAC
Формат/Информация : Free Lossless Audio Codec
Продолжительность : 6 м. 43 с.
Вид битрейта : Переменный
Битрейт : 1 653 Кбит/сек
Каналы : 2 канала
Channel layout : L R
Частота : 48,0 КГц
Битовая глубина : 24 бит
Метод сжатия : Без потерь
Размер потока : 79,6 Мбайт (100%)
Библиотека кодирования : libFLAC 1.1.0 (2003-01-26)
MD5 of the unencoded content : 00000000000000000000000000000000

Общее
Полное имя : H:\Wojtek Stanisz Quartet - Szuflandia (2024)\08 - Affection.flac
Формат : FLAC
Формат/Информация : Free Lossless Audio Codec
Размер файла : 34,2 Мбайт
Продолжительность : 3 м. 40 с.
Режим общего битрейта : Переменный
Общий поток : 1 305 Кбит/сек
Альбом : Szuflandia
Альбом/Исполнитель : WOJTEK STANISZ QUARTET
Трек : Affection
Трек/Положение : 8
Исполнитель : WOJTEK STANISZ QUARTET
Композитор : WOJTEK STANISZ
Жанр : Jazz fusion & Jazz rock
Дата записи : 2024 / 2024-02-14
ISRC : PL81M2100357
Авторское право : 2023 MUSIC CORNER RECORDS 2023 MUSIC CORNER RECORDS
UPC : 3617383752531
MEDIATYPE : album
ITUNESADVISORY : 1

Аудио
Формат : FLAC
Формат/Информация : Free Lossless Audio Codec
Продолжительность : 3 м. 40 с.
Вид битрейта : Переменный
Битрейт : 1 305 Кбит/сек
Каналы : 2 канала
Channel layout : L R
Частота : 48,0 КГц
Битовая глубина : 24 бит
Метод сжатия : Без потерь
Размер потока : 34,2 Мбайт (100%)
Библиотека кодирования : libFLAC 1.1.0 (2003-01-26)
MD5 of the unencoded content : 00000000000000000000000000000000

Общее
Полное имя : H:\Wojtek Stanisz Quartet - Szuflandia (2024)\09 - Arawujo.flac
Формат : FLAC
Формат/Информация : Free Lossless Audio Codec
Размер файла : 125 Мбайт
Продолжительность : 10 м. 17 с.
Режим общего битрейта : Переменный
Общий поток : 1 696 Кбит/сек
Альбом : Szuflandia
Альбом/Исполнитель : WOJTEK STANISZ QUARTET
Трек : Arawujo
Трек/Положение : 9
Исполнитель : WOJTEK STANISZ QUARTET
Композитор : WOJTEK STANISZ
Жанр : Jazz fusion & Jazz rock
Дата записи : 2024 / 2024-02-14
ISRC : PL81M2100358
Авторское право : 2023 MUSIC CORNER RECORDS 2023 MUSIC CORNER RECORDS
UPC : 3617383752531
MEDIATYPE : album
ITUNESADVISORY : 1

Аудио
Формат : FLAC
Формат/Информация : Free Lossless Audio Codec
Продолжительность : 10 м. 17 с.
Вид битрейта : Переменный
Битрейт : 1 696 Кбит/сек
Каналы : 2 канала
Channel layout : L R
Частота : 48,0 КГц
Битовая глубина : 24 бит
Метод сжатия : Без потерь
Размер потока : 125 Мбайт (100%)
Библиотека кодирования : libFLAC 1.1.0 (2003-01-26)
MD5 of the unencoded content : 00000000000000000000000000000000

Общее
Полное имя : H:\Wojtek Stanisz Quartet - Szuflandia (2024)\Cover.jpg
Формат : JPEG
Размер файла : 73,2 Кбайт

Изображения
Формат : JPEG
Ширина : 400 пикселей
Высота : 400 пикселей
Цветовое пространство : YUV
Субдискретизация насыщенности : 4:2:0
Битовая глубина : 8 бит
Метод сжатия : С потерями
Размер потока : 73,2 Кбайт (100%)

Общее
Полное имя : H:\Wojtek Stanisz Quartet - Szuflandia (2024)\foo_dr.txt
Размер файла : 1,23 Кбайт
Время раздачи: 24\7 на раздачи которым больше недели, не возвращаюсь (минимум до появления первых 3-5 скачавших)
[NNMClub.to]_Wojtek Stanisz Quartet - Szuflandia (2024).torrent
 Торрент:   Зарегистрирован
 
Зарегистрируйтесь и скачайте торрент!
15 KB

Примагнититься
 Зарегистрирован:   27 Фев 2024 07:57:03
 Размер:   733 MB  (
 Рейтинг:    (Голосов: 4)
 Поблагодарили:   32
 Проверка:   Оформление проверено модератором 27 Фев 2024 10:43:50
Как cкачать  ·  Как раздать  ·  Правильно оформить  ·  Поднять ратио!  
mawanwala
Стаж: 13 лет 1 мес.
Сообщений: 63
Ratio: 5.377
100%
Super !!!
Показать сообщения:   
Начать новую тему   Ответить на тему    Торрент-трекер NNM-Club -> HD Audio и Многоканальная Музыка -> WEB-DL-Audio Часовой пояс: GMT + 3
Страница 1 из 1