Классический форум-трекер
canvas not supported
Нас вместе: 4 233 673

Crimson Train - Crimson Train (2024) [FLAC 24/44.1|Lossless|WEB-DL|tracks] <Blues Rock>


 
 
RSS
Начать новую тему   Ответить на тему    Торрент-трекер NNM-Club -> HD Audio и Многоканальная Музыка -> WEB-DL-Audio
Автор Сообщение
krochka1 ®
RG Music
Стаж: 3 года 6 мес.
Сообщений: 2669
Ratio: 423.635
Поблагодарили: 105881
100%
Crimson Train - Crimson Train (2024)
Жанр: Blues Rock
Издание: FOUZIAN
Источник: Qobuz
Продолжительность: 00:31:32

Кодек: FLAC 24/44.1
Битрейт: Lossless|WEB-DL
Тип рипа: tracks

Треклист:
01. Long roads (3:49)
02. Morning star (4:15)
03. The price of gold (4:30)
04. Crimson train (3:04)
05. Whiskey and honey (4:57)
06. Le neuvième cercle (5:07)
07. Madison (5:50)
Общее
Полное имя : F:\Crimson Train - Crimson Train (2024)\01 - Long roads.flac
Формат : FLAC
Формат/Информация : Free Lossless Audio Codec
Размер файла : 44,4 Мбайт
Продолжительность : 3 м. 49 с.
Режим общего битрейта : Переменный
Общий поток : 1 625 Кбит/сек
Альбом : Crimson Train
Альбом/Исполнитель : Crimson Train
Трек : Long roads
Трек/Положение : 1
Исполнитель : Crimson Train
Композитор : Dorian Chamoin
Жанр : Rock
Дата записи : 2024 / 2024-04-12
ISRC : FR9W12413805
Авторское право : 2024 Dorian Chamoin 2024 Dorian Chamoin
UPC : 3617385897605
MEDIATYPE : album
ITUNESADVISORY : 1

Аудио
Формат : FLAC
Формат/Информация : Free Lossless Audio Codec
Продолжительность : 3 м. 49 с.
Вид битрейта : Переменный
Битрейт : 1 625 Кбит/сек
Каналы : 2 канала
Channel layout : L R
Частота : 44,1 КГц
Битовая глубина : 24 бит
Метод сжатия : Без потерь
Размер потока : 44,4 Мбайт (100%)
Библиотека кодирования : libFLAC 1.1.0 (2003-01-26)
MD5 of the unencoded content : 00000000000000000000000000000000

Общее
Полное имя : F:\Crimson Train - Crimson Train (2024)\02 - Morning star.flac
Формат : FLAC
Формат/Информация : Free Lossless Audio Codec
Размер файла : 49,1 Мбайт
Продолжительность : 4 м. 15 с.
Режим общего битрейта : Переменный
Общий поток : 1 615 Кбит/сек
Альбом : Crimson Train
Альбом/Исполнитель : Crimson Train
Трек : Morning star
Трек/Положение : 2
Исполнитель : Crimson Train
Композитор : Dorian Chamoin
Жанр : Rock
Дата записи : 2024 / 2024-04-12
ISRC : FR9W12413806
Авторское право : 2024 Dorian Chamoin 2024 Dorian Chamoin
UPC : 3617385897605
MEDIATYPE : album
ITUNESADVISORY : 1

Аудио
Формат : FLAC
Формат/Информация : Free Lossless Audio Codec
Продолжительность : 4 м. 15 с.
Вид битрейта : Переменный
Битрейт : 1 615 Кбит/сек
Каналы : 2 канала
Channel layout : L R
Частота : 44,1 КГц
Битовая глубина : 24 бит
Метод сжатия : Без потерь
Размер потока : 49,1 Мбайт (100%)
Библиотека кодирования : libFLAC 1.1.0 (2003-01-26)
MD5 of the unencoded content : 00000000000000000000000000000000

Общее
Полное имя : F:\Crimson Train - Crimson Train (2024)\03 - The price of gold.flac
Формат : FLAC
Формат/Информация : Free Lossless Audio Codec
Размер файла : 53,5 Мбайт
Продолжительность : 4 м. 29 с.
Режим общего битрейта : Переменный
Общий поток : 1 665 Кбит/сек
Альбом : Crimson Train
Альбом/Исполнитель : Crimson Train
Трек : The price of gold
Трек/Положение : 3
Исполнитель : Crimson Train
Композитор : Dorian Chamoin
Жанр : Rock
Дата записи : 2024 / 2024-04-12
ISRC : FR9W12413807
Авторское право : 2024 Dorian Chamoin 2024 Dorian Chamoin
UPC : 3617385897605
MEDIATYPE : album
ITUNESADVISORY : 1

Аудио
Формат : FLAC
Формат/Информация : Free Lossless Audio Codec
Продолжительность : 4 м. 29 с.
Вид битрейта : Переменный
Битрейт : 1 665 Кбит/сек
Каналы : 2 канала
Channel layout : L R
Частота : 44,1 КГц
Битовая глубина : 24 бит
Метод сжатия : Без потерь
Размер потока : 53,5 Мбайт (100%)
Библиотека кодирования : libFLAC 1.1.0 (2003-01-26)
MD5 of the unencoded content : 00000000000000000000000000000000

Общее
Полное имя : F:\Crimson Train - Crimson Train (2024)\04 - Crimson train.flac
Формат : FLAC
Формат/Информация : Free Lossless Audio Codec
Размер файла : 35,0 Мбайт
Продолжительность : 3 м. 4 с.
Режим общего битрейта : Переменный
Общий поток : 1 593 Кбит/сек
Альбом : Crimson Train
Альбом/Исполнитель : Crimson Train
Трек : Crimson train
Трек/Положение : 4
Исполнитель : Crimson Train
Композитор : Dorian Chamoin
Жанр : Rock
Дата записи : 2024 / 2024-04-12
ISRC : FR9W12413808
Авторское право : 2024 Dorian Chamoin 2024 Dorian Chamoin
UPC : 3617385897605
MEDIATYPE : album
ITUNESADVISORY : 1

Аудио
Формат : FLAC
Формат/Информация : Free Lossless Audio Codec
Продолжительность : 3 м. 4 с.
Вид битрейта : Переменный
Битрейт : 1 593 Кбит/сек
Каналы : 2 канала
Channel layout : L R
Частота : 44,1 КГц
Битовая глубина : 24 бит
Метод сжатия : Без потерь
Размер потока : 35,0 Мбайт (100%)
Библиотека кодирования : libFLAC 1.1.0 (2003-01-26)
MD5 of the unencoded content : 00000000000000000000000000000000

Общее
Полное имя : F:\Crimson Train - Crimson Train (2024)\05 - Whiskey and honey.flac
Формат : FLAC
Формат/Информация : Free Lossless Audio Codec
Размер файла : 56,8 Мбайт
Продолжительность : 4 м. 56 с.
Режим общего битрейта : Переменный
Общий поток : 1 607 Кбит/сек
Альбом : Crimson Train
Альбом/Исполнитель : Crimson Train
Трек : Whiskey and honey
Трек/Положение : 5
Исполнитель : Crimson Train
Композитор : Dorian Chamoin
Жанр : Rock
Дата записи : 2024 / 2024-04-12
ISRC : FR9W12413809
Авторское право : 2024 Dorian Chamoin 2024 Dorian Chamoin
UPC : 3617385897605
MEDIATYPE : album
ITUNESADVISORY : 1

Аудио
Формат : FLAC
Формат/Информация : Free Lossless Audio Codec
Продолжительность : 4 м. 56 с.
Вид битрейта : Переменный
Битрейт : 1 607 Кбит/сек
Каналы : 2 канала
Channel layout : L R
Частота : 44,1 КГц
Битовая глубина : 24 бит
Метод сжатия : Без потерь
Размер потока : 56,8 Мбайт (100%)
Библиотека кодирования : libFLAC 1.1.0 (2003-01-26)
MD5 of the unencoded content : 00000000000000000000000000000000

Общее
Полное имя : F:\Crimson Train - Crimson Train (2024)\06 - Le neuvième cercle.flac
Формат : FLAC
Формат/Информация : Free Lossless Audio Codec
Размер файла : 59,0 Мбайт
Продолжительность : 5 м. 6 с.
Режим общего битрейта : Переменный
Общий поток : 1 613 Кбит/сек
Альбом : Crimson Train
Альбом/Исполнитель : Crimson Train
Трек : Le neuvième cercle
Трек/Положение : 6
Исполнитель : Crimson Train
Композитор : Dorian Chamoin
Жанр : Rock
Дата записи : 2024 / 2024-04-12
ISRC : FR9W12413810
Авторское право : 2024 Dorian Chamoin 2024 Dorian Chamoin
UPC : 3617385897605
MEDIATYPE : album
ITUNESADVISORY : 1

Аудио
Формат : FLAC
Формат/Информация : Free Lossless Audio Codec
Продолжительность : 5 м. 6 с.
Вид битрейта : Переменный
Битрейт : 1 613 Кбит/сек
Каналы : 2 канала
Channel layout : L R
Частота : 44,1 КГц
Битовая глубина : 24 бит
Метод сжатия : Без потерь
Размер потока : 59,0 Мбайт (100%)
Библиотека кодирования : libFLAC 1.1.0 (2003-01-26)
MD5 of the unencoded content : 00000000000000000000000000000000

Общее
Полное имя : F:\Crimson Train - Crimson Train (2024)\07 - Madison.flac
Формат : FLAC
Формат/Информация : Free Lossless Audio Codec
Размер файла : 66,1 Мбайт
Продолжительность : 5 м. 49 с.
Режим общего битрейта : Переменный
Общий поток : 1 586 Кбит/сек
Альбом : Crimson Train
Альбом/Исполнитель : Crimson Train
Трек : Madison
Трек/Положение : 7
Исполнитель : Crimson Train
Композитор : Dorian Chamoin
Жанр : Rock
Дата записи : 2024 / 2024-04-12
ISRC : FR9W12413811
Авторское право : 2024 Dorian Chamoin 2024 Dorian Chamoin
UPC : 3617385897605
MEDIATYPE : album
ITUNESADVISORY : 1

Аудио
Формат : FLAC
Формат/Информация : Free Lossless Audio Codec
Продолжительность : 5 м. 49 с.
Вид битрейта : Переменный
Битрейт : 1 586 Кбит/сек
Каналы : 2 канала
Channel layout : L R
Частота : 44,1 КГц
Битовая глубина : 24 бит
Метод сжатия : Без потерь
Размер потока : 66,1 Мбайт (100%)
Библиотека кодирования : libFLAC 1.1.0 (2003-01-26)
MD5 of the unencoded content : 00000000000000000000000000000000

Общее
Полное имя : F:\Crimson Train - Crimson Train (2024)\Cover.jpg
Формат : JPEG
Размер файла : 109 Кбайт

Изображения
Формат : JPEG
Ширина : 400 пикселей
Высота : 400 пикселей
Цветовое пространство : YUV
Субдискретизация насыщенности : 4:2:0
Битовая глубина : 8 бит
Метод сжатия : С потерями
Размер потока : 109 Кбайт (100%)

Общее
Полное имя : F:\Crimson Train - Crimson Train (2024)\foo_dr.txt
Размер файла : 1,14 Кбайт
Время раздачи: 24\7 на раздачи которым больше недели, не возвращаюсь (минимум до появления первых 3-5 скачавших)
[NNMClub.to]_Crimson Train - Crimson Train (2024).torrent
 Торрент:   Зарегистрирован
 
Зарегистрируйтесь и скачайте торрент!
14.8 KB

Примагнититься
 Зарегистрирован:   18 Апр 2024 09:24:04
 Размер:   364 MB  (
 Рейтинг:    (Голосов: 6)
 Поблагодарили:   50
 Проверка:   Оформление проверено модератором 18 Апр 2024 11:35:32
Как cкачать  ·  Как раздать  ·  Правильно оформить  ·  Поднять ратио!  
ishutinow

Online
Стаж: 13 лет 3 мес.
Сообщений: 12302
Ratio: 2.773
Раздал: 249.2 TB
Поблагодарили: 313147
3.96%
Откуда: Tehran
iraq.gif
109kb для такой замечательной обложки...
Страна: France
YouTube
krochka1 ®
RG Music
Стаж: 3 года 6 мес.
Сообщений: 2669
Ratio: 423.635
Поблагодарили: 105881
100%
ishutinow
Я не понимаю как тебя ещё не поставили в позу.
По правилам она вообще должна быть не более 100kb/
ishutinow

Online
Стаж: 13 лет 3 мес.
Сообщений: 12302
Ratio: 2.773
Раздал: 249.2 TB
Поблагодарили: 313147
3.96%
Откуда: Tehran
iraq.gif
krochka1 ® Вы меня немного не поняли видно. Я не про оформление постов (где вес постера не более 100кб. У Вас же кстати в этом посте 108.73 KB (111,340 bytes)

А про обложку в раздаче. Когда загружается с нашего с Вами любимого Qobuz - обложка cover загружается эталонная. В нашем случае на 2.5 мб, а Вас же в раздаче cover - 109kb.

Вот что я имел в виду.
kostenkoyuriy
Стаж: 4 года 11 мес.
Сообщений: 61
Ratio: 7.215
96.95%
Разве дело в обложке? Все приходящее, а музыка вечна. А с музыкой здесь полный порядок.
ishutinow

Online
Стаж: 13 лет 3 мес.
Сообщений: 12302
Ratio: 2.773
Раздал: 249.2 TB
Поблагодарили: 313147
3.96%
Откуда: Tehran
iraq.gif
Цитата:
А с музыкой здесь полный порядок
Бесспорно ! Но эталонный а не коцаный от мошенников релиз от Qobuz все же лучше. Не лучший вариант тырить от всяких мошенников, вполне свой релиз лучше и гармоничней.
Показать сообщения:   
Начать новую тему   Ответить на тему    Торрент-трекер NNM-Club -> HD Audio и Многоканальная Музыка -> WEB-DL-Audio Часовой пояс: GMT + 3
Страница 1 из 1