Классический форум-трекер
canvas not supported
Нас вместе: 4 233 673

Gun - Hombres (2024) [FLAC 24/44.1|Lossless|WEB-DL|tracks] <Hard Rock>


 
 
RSS
Начать новую тему   Ответить на тему    Торрент-трекер NNM-Club -> HD Audio и Многоканальная Музыка -> WEB-DL-Audio
Автор Сообщение
krochka1 ®
RG Music
Стаж: 3 года 6 мес.
Сообщений: 2669
Ratio: 423.635
Поблагодарили: 105881
100%
Gun - Hombres (2024)
Жанр: Hard Rock
Издание: Cooking Vinyl Limited
Источник: Qobuz
Продолжительность: 00:35:54

Кодек: FLAC 24/44.1
Битрейт: Lossless|WEB-DL
Тип рипа: tracks

Треклист:
01. All Fired Up (3:42)
02. Boys Don't Cry (2:54)
03. Take Me Back Home (3:12)
04. Fake Life (3:35)
05. Falling (3:31)
06. You Are What I Need (4:39)
07. Never Enough (3:12)
08. Don't Hide Your Fears Tonight (3:32)
09. Lucky Guy (3:16)
10. A Shift in Time (4:21)
Общее
Полное имя : F:\Gun - Hombres (2024)\01 - All Fired Up.flac
Формат : FLAC
Формат/Информация : Free Lossless Audio Codec
Размер файла : 46,1 Мбайт
Продолжительность : 3 м. 42 с.
Режим общего битрейта : Переменный
Общий поток : 1 743 Кбит/сек
Альбом : Hombres
Альбом/Исполнитель : Gun
Трек : All Fired Up
Трек/Положение : 01
Исполнитель : Gun
Композитор : Giuliano Gizzi
Жанр : Rock
Дата записи : 2024 / 2024-04-12
ISRC : GBCEJ2300323
Авторское право : (C) 2024 GUN under exclusive licence to Cooking Vinyl Limited (P) 2024 Gun under exclusive licence to Cooking Vinyl Limited
UPC : 0711297921441
MEDIATYPE : album
ITUNESADVISORY : 1

Аудио
Формат : FLAC
Формат/Информация : Free Lossless Audio Codec
Продолжительность : 3 м. 42 с.
Вид битрейта : Переменный
Битрейт : 1 743 Кбит/сек
Каналы : 2 канала
Channel layout : L R
Частота : 44,1 КГц
Битовая глубина : 24 бит
Метод сжатия : Без потерь
Размер потока : 46,1 Мбайт (100%)
Библиотека кодирования : libFLAC 1.1.0 (2003-01-26)
MD5 of the unencoded content : 00000000000000000000000000000000

Общее
Полное имя : F:\Gun - Hombres (2024)\02 - Boys Don't Cry.flac
Формат : FLAC
Формат/Информация : Free Lossless Audio Codec
Размер файла : 35,8 Мбайт
Продолжительность : 2 м. 54 с.
Режим общего битрейта : Переменный
Общий поток : 1 722 Кбит/сек
Альбом : Hombres
Альбом/Исполнитель : Gun
Трек : Boys Don't Cry
Трек/Положение : 02
Исполнитель : Gun
Композитор : Giuliano Gizzi
Жанр : Rock
Дата записи : 2024 / 2024-04-12
ISRC : GBCEJ2300324
Авторское право : (C) 2024 GUN under exclusive licence to Cooking Vinyl Limited (P) 2024 Gun under exclusive licence to Cooking Vinyl Limited
UPC : 0711297921441
MEDIATYPE : album
ITUNESADVISORY : 1

Аудио
Формат : FLAC
Формат/Информация : Free Lossless Audio Codec
Продолжительность : 2 м. 54 с.
Вид битрейта : Переменный
Битрейт : 1 722 Кбит/сек
Каналы : 2 канала
Channel layout : L R
Частота : 44,1 КГц
Битовая глубина : 24 бит
Метод сжатия : Без потерь
Размер потока : 35,8 Мбайт (100%)
Библиотека кодирования : libFLAC 1.1.0 (2003-01-26)
MD5 of the unencoded content : 00000000000000000000000000000000

Общее
Полное имя : F:\Gun - Hombres (2024)\03 - Take Me Back Home.flac
Формат : FLAC
Формат/Информация : Free Lossless Audio Codec
Размер файла : 39,6 Мбайт
Продолжительность : 3 м. 11 с.
Режим общего битрейта : Переменный
Общий поток : 1 732 Кбит/сек
Альбом : Hombres
Альбом/Исполнитель : Gun
Трек : Take Me Back Home
Трек/Положение : 03
Исполнитель : Gun
Композитор : Giuliano Gizzi
Жанр : Rock
Дата записи : 2024 / 2024-04-12
ISRC : GBCEJ2300325
Авторское право : (C) 2024 GUN under exclusive licence to Cooking Vinyl Limited (P) 2024 Gun under exclusive licence to Cooking Vinyl Limited
UPC : 0711297921441
MEDIATYPE : album
ITUNESADVISORY : 1

Аудио
Формат : FLAC
Формат/Информация : Free Lossless Audio Codec
Продолжительность : 3 м. 11 с.
Вид битрейта : Переменный
Битрейт : 1 731 Кбит/сек
Каналы : 2 канала
Channel layout : L R
Частота : 44,1 КГц
Битовая глубина : 24 бит
Метод сжатия : Без потерь
Размер потока : 39,6 Мбайт (100%)
Библиотека кодирования : libFLAC 1.1.0 (2003-01-26)
MD5 of the unencoded content : 00000000000000000000000000000000

Общее
Полное имя : F:\Gun - Hombres (2024)\04 - Fake Life.flac
Формат : FLAC
Формат/Информация : Free Lossless Audio Codec
Размер файла : 44,2 Мбайт
Продолжительность : 3 м. 35 с.
Режим общего битрейта : Переменный
Общий поток : 1 725 Кбит/сек
Альбом : Hombres
Альбом/Исполнитель : Gun
Трек : Fake Life
Трек/Положение : 04
Исполнитель : Gun
Композитор : Giuliano Gizzi
Жанр : Rock
Дата записи : 2024 / 2024-04-12
ISRC : GBCEJ2300326
Авторское право : (C) 2024 GUN under exclusive licence to Cooking Vinyl Limited (P) 2024 Gun under exclusive licence to Cooking Vinyl Limited
UPC : 0711297921441
MEDIATYPE : album
ITUNESADVISORY : 1

Аудио
Формат : FLAC
Формат/Информация : Free Lossless Audio Codec
Продолжительность : 3 м. 35 с.
Вид битрейта : Переменный
Битрейт : 1 725 Кбит/сек
Каналы : 2 канала
Channel layout : L R
Частота : 44,1 КГц
Битовая глубина : 24 бит
Метод сжатия : Без потерь
Размер потока : 44,2 Мбайт (100%)
Библиотека кодирования : libFLAC 1.1.0 (2003-01-26)
MD5 of the unencoded content : 00000000000000000000000000000000

Общее
Полное имя : F:\Gun - Hombres (2024)\05 - Falling.flac
Формат : FLAC
Формат/Информация : Free Lossless Audio Codec
Размер файла : 41,6 Мбайт
Продолжительность : 3 м. 30 с.
Режим общего битрейта : Переменный
Общий поток : 1 656 Кбит/сек
Альбом : Hombres
Альбом/Исполнитель : Gun
Трек : Falling
Трек/Положение : 05
Исполнитель : Gun
Композитор : Giuliano Gizzi
Жанр : Rock
Дата записи : 2024 / 2024-04-12
ISRC : GBCEJ2300327
Авторское право : (C) 2024 GUN under exclusive licence to Cooking Vinyl Limited (P) 2024 Gun under exclusive licence to Cooking Vinyl Limited
UPC : 0711297921441
MEDIATYPE : album
ITUNESADVISORY : 1

Аудио
Формат : FLAC
Формат/Информация : Free Lossless Audio Codec
Продолжительность : 3 м. 30 с.
Вид битрейта : Переменный
Битрейт : 1 655 Кбит/сек
Каналы : 2 канала
Channel layout : L R
Частота : 44,1 КГц
Битовая глубина : 24 бит
Метод сжатия : Без потерь
Размер потока : 41,6 Мбайт (100%)
Библиотека кодирования : libFLAC 1.1.0 (2003-01-26)
MD5 of the unencoded content : 00000000000000000000000000000000

Общее
Полное имя : F:\Gun - Hombres (2024)\06 - You Are What I Need.flac
Формат : FLAC
Формат/Информация : Free Lossless Audio Codec
Размер файла : 55,3 Мбайт
Продолжительность : 4 м. 39 с.
Режим общего битрейта : Переменный
Общий поток : 1 662 Кбит/сек
Альбом : Hombres
Альбом/Исполнитель : Gun
Трек : You Are What I Need
Трек/Положение : 06
Исполнитель : Gun
Композитор : Giuliano Gizzi
Жанр : Rock
Дата записи : 2024 / 2024-04-12
ISRC : GBCEJ2300328
Авторское право : (C) 2024 GUN under exclusive licence to Cooking Vinyl Limited (P) 2024 Gun under exclusive licence to Cooking Vinyl Limited
UPC : 0711297921441
MEDIATYPE : album
ITUNESADVISORY : 1

Аудио
Формат : FLAC
Формат/Информация : Free Lossless Audio Codec
Продолжительность : 4 м. 39 с.
Вид битрейта : Переменный
Битрейт : 1 662 Кбит/сек
Каналы : 2 канала
Channel layout : L R
Частота : 44,1 КГц
Битовая глубина : 24 бит
Метод сжатия : Без потерь
Размер потока : 55,3 Мбайт (100%)
Библиотека кодирования : libFLAC 1.1.0 (2003-01-26)
MD5 of the unencoded content : 00000000000000000000000000000000

Общее
Полное имя : F:\Gun - Hombres (2024)\07 - Never Enough.flac
Формат : FLAC
Формат/Информация : Free Lossless Audio Codec
Размер файла : 38,3 Мбайт
Продолжительность : 3 м. 11 с.
Режим общего битрейта : Переменный
Общий поток : 1 673 Кбит/сек
Альбом : Hombres
Альбом/Исполнитель : Gun
Трек : Never Enough
Трек/Положение : 07
Исполнитель : Gun
Композитор : Giuliano Gizzi
Жанр : Rock
Дата записи : 2024 / 2024-04-12
ISRC : GBCEJ2300329
Авторское право : (C) 2024 GUN under exclusive licence to Cooking Vinyl Limited (P) 2024 Gun under exclusive licence to Cooking Vinyl Limited
UPC : 0711297921441
MEDIATYPE : album
ITUNESADVISORY : 1

Аудио
Формат : FLAC
Формат/Информация : Free Lossless Audio Codec
Продолжительность : 3 м. 11 с.
Вид битрейта : Переменный
Битрейт : 1 673 Кбит/сек
Каналы : 2 канала
Channel layout : L R
Частота : 44,1 КГц
Битовая глубина : 24 бит
Метод сжатия : Без потерь
Размер потока : 38,2 Мбайт (100%)
Библиотека кодирования : libFLAC 1.1.0 (2003-01-26)
MD5 of the unencoded content : 00000000000000000000000000000000

Общее
Полное имя : F:\Gun - Hombres (2024)\08 - Don't Hide Your Fears Tonight.flac
Формат : FLAC
Формат/Информация : Free Lossless Audio Codec
Размер файла : 42,8 Мбайт
Продолжительность : 3 м. 31 с.
Режим общего битрейта : Переменный
Общий поток : 1 693 Кбит/сек
Альбом : Hombres
Альбом/Исполнитель : Gun
Трек : Don't Hide Your Fears Tonight
Трек/Положение : 08
Исполнитель : Gun
Композитор : Giuliano Gizzi
Жанр : Rock
Дата записи : 2024 / 2024-04-12
ISRC : GBCEJ2300330
Авторское право : (C) 2024 GUN under exclusive licence to Cooking Vinyl Limited (P) 2024 Gun under exclusive licence to Cooking Vinyl Limited
UPC : 0711297921441
MEDIATYPE : album
ITUNESADVISORY : 1

Аудио
Формат : FLAC
Формат/Информация : Free Lossless Audio Codec
Продолжительность : 3 м. 31 с.
Вид битрейта : Переменный
Битрейт : 1 693 Кбит/сек
Каналы : 2 канала
Channel layout : L R
Частота : 44,1 КГц
Битовая глубина : 24 бит
Метод сжатия : Без потерь
Размер потока : 42,8 Мбайт (100%)
Библиотека кодирования : libFLAC 1.1.0 (2003-01-26)
MD5 of the unencoded content : 00000000000000000000000000000000

Общее
Полное имя : F:\Gun - Hombres (2024)\09 - Lucky Guy.flac
Формат : FLAC
Формат/Информация : Free Lossless Audio Codec
Размер файла : 38,9 Мбайт
Продолжительность : 3 м. 15 с.
Режим общего битрейта : Переменный
Общий поток : 1 668 Кбит/сек
Альбом : Hombres
Альбом/Исполнитель : Gun
Трек : Lucky Guy
Трек/Положение : 09
Исполнитель : Gun
Композитор : Giuliano Gizzi
Жанр : Rock
Дата записи : 2024 / 2024-04-12
ISRC : GBCEJ2300331
Авторское право : (C) 2024 GUN under exclusive licence to Cooking Vinyl Limited (P) 2024 Gun under exclusive licence to Cooking Vinyl Limited
UPC : 0711297921441
MEDIATYPE : album
ITUNESADVISORY : 1

Аудио
Формат : FLAC
Формат/Информация : Free Lossless Audio Codec
Продолжительность : 3 м. 15 с.
Вид битрейта : Переменный
Битрейт : 1 667 Кбит/сек
Каналы : 2 канала
Channel layout : L R
Частота : 44,1 КГц
Битовая глубина : 24 бит
Метод сжатия : Без потерь
Размер потока : 38,9 Мбайт (100%)
Библиотека кодирования : libFLAC 1.1.0 (2003-01-26)
MD5 of the unencoded content : 00000000000000000000000000000000

Общее
Полное имя : F:\Gun - Hombres (2024)\10 - A Shift in Time.flac
Формат : FLAC
Формат/Информация : Free Lossless Audio Codec
Размер файла : 53,4 Мбайт
Продолжительность : 4 м. 21 с.
Режим общего битрейта : Переменный
Общий поток : 1 712 Кбит/сек
Альбом : Hombres
Альбом/Исполнитель : Gun
Трек : A Shift in Time
Трек/Положение : 10
Исполнитель : Gun
Композитор : Giuliano Gizzi
Жанр : Rock
Дата записи : 2024 / 2024-04-12
ISRC : GBCEJ2300332
Авторское право : (C) 2024 GUN under exclusive licence to Cooking Vinyl Limited (P) 2024 Gun under exclusive licence to Cooking Vinyl Limited
UPC : 0711297921441
MEDIATYPE : album
ITUNESADVISORY : 1

Аудио
Формат : FLAC
Формат/Информация : Free Lossless Audio Codec
Продолжительность : 4 м. 21 с.
Вид битрейта : Переменный
Битрейт : 1 712 Кбит/сек
Каналы : 2 канала
Channel layout : L R
Частота : 44,1 КГц
Битовая глубина : 24 бит
Метод сжатия : Без потерь
Размер потока : 53,4 Мбайт (100%)
Библиотека кодирования : libFLAC 1.1.0 (2003-01-26)
MD5 of the unencoded content : 00000000000000000000000000000000

Общее
Полное имя : F:\Gun - Hombres (2024)\Cover.jpg
Формат : JPEG
Размер файла : 102 Кбайт

Изображения
Формат : JPEG
Ширина : 500 пикселей
Высота : 500 пикселей
Цветовое пространство : YUV
Субдискретизация насыщенности : 4:2:0
Битовая глубина : 8 бит
Метод сжатия : С потерями
Размер потока : 102 Кбайт (100%)
ColorSpace_ICC : RGB

Общее
Полное имя : F:\Gun - Hombres (2024)\foo_dr.txt
Размер файла : 1,32 Кбайт
Время раздачи: 24\7 на раздачи которым больше недели, не возвращаюсь (минимум до появления первых 3-5 скачавших)
[NNMClub.to]_Gun - Hombres (2024).torrent
 Торрент:   Зарегистрирован
 
Зарегистрируйтесь и скачайте торрент!
17.8 KB

Примагнититься
 Зарегистрирован:   18 Апр 2024 18:37:00
 Размер:   436 MB  (
 Рейтинг:    (Голосов: 3)
 Поблагодарили:   35
 Проверка:   Оформление проверено модератором 18 Апр 2024 19:26:07
Как cкачать  ·  Как раздать  ·  Правильно оформить  ·  Поднять ратио!  
Показать сообщения:   
Начать новую тему   Ответить на тему    Торрент-трекер NNM-Club -> HD Audio и Многоканальная Музыка -> WEB-DL-Audio Часовой пояс: GMT + 3
Страница 1 из 1