Классический форум-трекер
canvas not supported
Нас вместе: 4 232 957

Arne Skage - Rootwork (2024) [FLAC 24/44.1|Lossless|WEB-DL|tracks] <Blues>


 
 
RSS
Начать новую тему   Ответить на тему    Торрент-трекер NNM-Club -> HD Audio и Многоканальная Музыка -> WEB-DL-Audio
Автор Сообщение
krochka1 ®
RG Music
Стаж: 3 года 5 мес.
Сообщений: 2608
Ratio: 418.146
Поблагодарили: 103679
100%
Arne Skage - Rootwork (2024)
Жанр: Blues
Издание: Slide Productions
Источник: Qobuz
Продолжительность: 00:36:04

Кодек: FLAC 24/44.1
Битрейт: Lossless|WEB-DL
Тип рипа: tracks

Треклист:
01. Tootie Ma (4:00)
02. Thalulah (3:57)
03. Keeping The Blues Alive (3:44)
04. Nothing Is Made To Last (3:50)
05. See You Down The Road (4:15)
06. Comeback On The Wayback (3:45)
07. Viola Lee (4:07)
08. I Yi Yi (3:31)
09. Word To The Wise (4:54)
Общее
Полное имя : H:\Arne Skage - Rootwork (2024)\01 - Tootie Ma.flac
Формат : FLAC
Формат/Информация : Free Lossless Audio Codec
Размер файла : 49,4 Мбайт
Продолжительность : 3 м. 59 с.
Режим общего битрейта : Переменный
Общий поток : 1 728 Кбит/сек
Альбом : Rootwork
Альбом/Исполнитель : Arne Skage
Трек : Tootie Ma
Трек/Положение : 1
Исполнитель : Arne Skage
Композитор : Trad.
Жанр : Blues
Дата записи : 2024 / 2024-04-19
ISRC : NOE9A2302011
Авторское право : (C) 2024 Slide productions (P) 2024 Slide Productions
UPC : 0197190925364
MEDIATYPE : album
ITUNESADVISORY : 1

Аудио
Формат : FLAC
Формат/Информация : Free Lossless Audio Codec
Продолжительность : 3 м. 59 с.
Вид битрейта : Переменный
Битрейт : 1 728 Кбит/сек
Каналы : 2 канала
Channel layout : L R
Частота : 44,1 КГц
Битовая глубина : 24 бит
Метод сжатия : Без потерь
Размер потока : 49,4 Мбайт (100%)
Библиотека кодирования : libFLAC 1.1.0 (2003-01-26)
MD5 of the unencoded content : 00000000000000000000000000000000

Общее
Полное имя : H:\Arne Skage - Rootwork (2024)\02 - Thalulah.flac
Формат : FLAC
Формат/Информация : Free Lossless Audio Codec
Размер файла : 47,0 Мбайт
Продолжительность : 3 м. 56 с.
Режим общего битрейта : Переменный
Общий поток : 1 667 Кбит/сек
Альбом : Rootwork
Альбом/Исполнитель : Arne Skage
Трек : Thalulah
Трек/Положение : 2
Исполнитель : Arne Skage
Композитор : Arne Skage
Жанр : Blues
Дата записи : 2024 / 2024-04-19
ISRC : NOE9A2401020
Авторское право : (C) 2024 Slide productions (P) 2024 Slide Productions
UPC : 0197190925364
MEDIATYPE : album
ITUNESADVISORY : 1

Аудио
Формат : FLAC
Формат/Информация : Free Lossless Audio Codec
Продолжительность : 3 м. 56 с.
Вид битрейта : Переменный
Битрейт : 1 666 Кбит/сек
Каналы : 2 канала
Channel layout : L R
Частота : 44,1 КГц
Битовая глубина : 24 бит
Метод сжатия : Без потерь
Размер потока : 47,0 Мбайт (100%)
Библиотека кодирования : libFLAC 1.1.0 (2003-01-26)
MD5 of the unencoded content : 00000000000000000000000000000000

Общее
Полное имя : H:\Arne Skage - Rootwork (2024)\03 - Keeping The Blues Alive.flac
Формат : FLAC
Формат/Информация : Free Lossless Audio Codec
Размер файла : 44,9 Мбайт
Продолжительность : 3 м. 44 с.
Режим общего битрейта : Переменный
Общий поток : 1 677 Кбит/сек
Альбом : Rootwork
Альбом/Исполнитель : Arne Skage
Трек : Keeping The Blues Alive
Трек/Положение : 3
Исполнитель : Arne Skage
Композитор : Arne Skage
Жанр : Blues
Дата записи : 2024 / 2024-04-19
ISRC : NOE9A2401030
Авторское право : (C) 2024 Slide productions (P) 2024 Slide Productions
UPC : 0197190925364
MEDIATYPE : album
ITUNESADVISORY : 1

Аудио
Формат : FLAC
Формат/Информация : Free Lossless Audio Codec
Продолжительность : 3 м. 44 с.
Вид битрейта : Переменный
Битрейт : 1 677 Кбит/сек
Каналы : 2 канала
Channel layout : L R
Частота : 44,1 КГц
Битовая глубина : 24 бит
Метод сжатия : Без потерь
Размер потока : 44,9 Мбайт (100%)
Библиотека кодирования : libFLAC 1.1.0 (2003-01-26)
MD5 of the unencoded content : 00000000000000000000000000000000

Общее
Полное имя : H:\Arne Skage - Rootwork (2024)\04 - Nothing Is Made To Last.flac
Формат : FLAC
Формат/Информация : Free Lossless Audio Codec
Размер файла : 39,8 Мбайт
Продолжительность : 3 м. 50 с.
Режим общего битрейта : Переменный
Общий поток : 1 450 Кбит/сек
Альбом : Rootwork
Альбом/Исполнитель : Arne Skage
Трек : Nothing Is Made To Last
Трек/Положение : 4
Исполнитель : Arne Skage
Композитор : Arne Skage
Жанр : Blues
Дата записи : 2024 / 2024-04-19
ISRC : NOE9A2401040
Авторское право : (C) 2024 Slide productions (P) 2024 Slide Productions
UPC : 0197190925364
MEDIATYPE : album
ITUNESADVISORY : 1

Аудио
Формат : FLAC
Формат/Информация : Free Lossless Audio Codec
Продолжительность : 3 м. 50 с.
Вид битрейта : Переменный
Битрейт : 1 449 Кбит/сек
Каналы : 2 канала
Channel layout : L R
Частота : 44,1 КГц
Битовая глубина : 24 бит
Метод сжатия : Без потерь
Размер потока : 39,8 Мбайт (100%)
Библиотека кодирования : libFLAC 1.1.0 (2003-01-26)
MD5 of the unencoded content : 00000000000000000000000000000000

Общее
Полное имя : H:\Arne Skage - Rootwork (2024)\05 - See You Down The Road.flac
Формат : FLAC
Формат/Информация : Free Lossless Audio Codec
Размер файла : 51,4 Мбайт
Продолжительность : 4 м. 14 с.
Режим общего битрейта : Переменный
Общий поток : 1 691 Кбит/сек
Альбом : Rootwork
Альбом/Исполнитель : Arne Skage
Трек : See You Down The Road
Трек/Положение : 5
Исполнитель : Arne Skage
Композитор : Arne Skage
Жанр : Blues
Дата записи : 2024 / 2024-04-19
ISRC : NOE9A2401050
Авторское право : (C) 2024 Slide productions (P) 2024 Slide Productions
UPC : 0197190925364
MEDIATYPE : album
ITUNESADVISORY : 1

Аудио
Формат : FLAC
Формат/Информация : Free Lossless Audio Codec
Продолжительность : 4 м. 14 с.
Вид битрейта : Переменный
Битрейт : 1 691 Кбит/сек
Каналы : 2 канала
Channel layout : L R
Частота : 44,1 КГц
Битовая глубина : 24 бит
Метод сжатия : Без потерь
Размер потока : 51,4 Мбайт (100%)
Библиотека кодирования : libFLAC 1.1.0 (2003-01-26)
MD5 of the unencoded content : 00000000000000000000000000000000

Общее
Полное имя : H:\Arne Skage - Rootwork (2024)\06 - Comeback On The Wayback.flac
Формат : FLAC
Формат/Информация : Free Lossless Audio Codec
Размер файла : 45,5 Мбайт
Продолжительность : 3 м. 45 с.
Режим общего битрейта : Переменный
Общий поток : 1 692 Кбит/сек
Альбом : Rootwork
Альбом/Исполнитель : Arne Skage
Трек : Comeback On The Wayback
Трек/Положение : 6
Исполнитель : Arne Skage
Композитор : Arne Skage
Жанр : Blues
Дата записи : 2024 / 2024-04-19
ISRC : NOE9A2401060
Авторское право : (C) 2024 Slide productions (P) 2024 Slide Productions
UPC : 0197190925364
MEDIATYPE : album
ITUNESADVISORY : 1

Аудио
Формат : FLAC
Формат/Информация : Free Lossless Audio Codec
Продолжительность : 3 м. 45 с.
Вид битрейта : Переменный
Битрейт : 1 692 Кбит/сек
Каналы : 2 канала
Channel layout : L R
Частота : 44,1 КГц
Битовая глубина : 24 бит
Метод сжатия : Без потерь
Размер потока : 45,5 Мбайт (100%)
Библиотека кодирования : libFLAC 1.1.0 (2003-01-26)
MD5 of the unencoded content : 00000000000000000000000000000000

Общее
Полное имя : H:\Arne Skage - Rootwork (2024)\07 - Viola Lee.flac
Формат : FLAC
Формат/Информация : Free Lossless Audio Codec
Размер файла : 47,6 Мбайт
Продолжительность : 4 м. 7 с.
Режим общего битрейта : Переменный
Общий поток : 1 616 Кбит/сек
Альбом : Rootwork
Альбом/Исполнитель : Arne Skage
Трек : Viola Lee
Трек/Положение : 7
Исполнитель : Arne Skage
Композитор : Arne Skage
Жанр : Blues
Дата записи : 2024 / 2024-04-19
ISRC : NOE9A2401070
Авторское право : (C) 2024 Slide productions (P) 2024 Slide Productions
UPC : 0197190925364
MEDIATYPE : album
ITUNESADVISORY : 1

Аудио
Формат : FLAC
Формат/Информация : Free Lossless Audio Codec
Продолжительность : 4 м. 7 с.
Вид битрейта : Переменный
Битрейт : 1 616 Кбит/сек
Каналы : 2 канала
Channel layout : L R
Частота : 44,1 КГц
Битовая глубина : 24 бит
Метод сжатия : Без потерь
Размер потока : 47,6 Мбайт (100%)
Библиотека кодирования : libFLAC 1.1.0 (2003-01-26)
MD5 of the unencoded content : 00000000000000000000000000000000

Общее
Полное имя : H:\Arne Skage - Rootwork (2024)\08 - I Yi Yi.flac
Формат : FLAC
Формат/Информация : Free Lossless Audio Codec
Размер файла : 42,4 Мбайт
Продолжительность : 3 м. 31 с.
Режим общего битрейта : Переменный
Общий поток : 1 682 Кбит/сек
Альбом : Rootwork
Альбом/Исполнитель : Arne Skage
Трек : I Yi Yi
Трек/Положение : 8
Исполнитель : Arne Skage
Композитор : Clifton Chenier
Жанр : Blues
Дата записи : 2024 / 2024-04-19
ISRC : NOE9A2401080
Авторское право : (C) 2024 Slide productions (P) 2024 Slide Productions
UPC : 0197190925364
MEDIATYPE : album
ITUNESADVISORY : 1

Аудио
Формат : FLAC
Формат/Информация : Free Lossless Audio Codec
Продолжительность : 3 м. 31 с.
Вид битрейта : Переменный
Битрейт : 1 682 Кбит/сек
Каналы : 2 канала
Channel layout : L R
Частота : 44,1 КГц
Битовая глубина : 24 бит
Метод сжатия : Без потерь
Размер потока : 42,4 Мбайт (100%)
Библиотека кодирования : libFLAC 1.1.0 (2003-01-26)
MD5 of the unencoded content : 00000000000000000000000000000000

Общее
Полное имя : H:\Arne Skage - Rootwork (2024)\09 - Word To The Wise.flac
Формат : FLAC
Формат/Информация : Free Lossless Audio Codec
Размер файла : 53,4 Мбайт
Продолжительность : 4 м. 53 с.
Режим общего битрейта : Переменный
Общий поток : 1 525 Кбит/сек
Альбом : Rootwork
Альбом/Исполнитель : Arne Skage
Трек : Word To The Wise
Трек/Положение : 9
Исполнитель : Arne Skage
Композитор : Leslie Blackshear Smith
Жанр : Blues
Дата записи : 2024 / 2024-04-19
ISRC : NOE9A2401090
Авторское право : (C) 2024 Slide productions (P) 2024 Slide Productions
UPC : 0197190925364
MEDIATYPE : album
ITUNESADVISORY : 1

Аудио
Формат : FLAC
Формат/Информация : Free Lossless Audio Codec
Продолжительность : 4 м. 53 с.
Вид битрейта : Переменный
Битрейт : 1 525 Кбит/сек
Каналы : 2 канала
Channel layout : L R
Частота : 44,1 КГц
Битовая глубина : 24 бит
Метод сжатия : Без потерь
Размер потока : 53,4 Мбайт (100%)
Библиотека кодирования : libFLAC 1.1.0 (2003-01-26)
MD5 of the unencoded content : 00000000000000000000000000000000

Общее
Полное имя : H:\Arne Skage - Rootwork (2024)\Cover.jpg
Формат : JPEG
Размер файла : 88,2 Кбайт

Изображения
Формат : JPEG
Ширина : 500 пикселей
Высота : 500 пикселей
Цветовое пространство : YUV
Субдискретизация насыщенности : 4:2:0
Битовая глубина : 8 бит
Метод сжатия : С потерями
Размер потока : 88,2 Кбайт (100%)
ColorSpace_ICC : RGB

Общее
Полное имя : H:\Arne Skage - Rootwork (2024)\foo_dr.txt
Размер файла : 1,27 Кбайт
Время раздачи: 24\7 на раздачи которым больше недели, не возвращаюсь (минимум до появления первых 3-5 скачавших)
[NNMClub.to]_Arne Skage - Rootwork (2024).torrent
 Торрент:   Зарегистрирован
 
Зарегистрируйтесь и скачайте торрент!
17.2 KB

Примагнититься
 Зарегистрирован:   22 Апр 2024 10:21:35
 Размер:   421 MB  (
 Рейтинг:    (Голосов: 1)
 Поблагодарили:   36
 Проверка:   Оформление проверено модератором 22 Апр 2024 10:40:00
Как cкачать  ·  Как раздать  ·  Правильно оформить  ·  Поднять ратио!  
Показать сообщения:   
Начать новую тему   Ответить на тему    Торрент-трекер NNM-Club -> HD Audio и Многоканальная Музыка -> WEB-DL-Audio Часовой пояс: GMT + 3
Страница 1 из 1