Классический форум-трекер
canvas not supported
Нас вместе: 4 232 976

Pontchartrain Shakers - Pontchartrain Shakers (2024) [FLAC 24/48|Lossless|WEB-DL|tracks] <Blues>


 
 
RSS
Начать новую тему   Ответить на тему    Торрент-трекер NNM-Club -> HD Audio и Многоканальная Музыка -> WEB-DL-Audio
Автор Сообщение
krochka1 ®
RG Music
Стаж: 3 года 5 мес.
Сообщений: 2608
Ratio: 418.146
Поблагодарили: 103692
100%
Pontchartrain Shakers - Pontchartrain Shakers (2024)
Жанр: Blues
Издание: Southland
Источник: Qobuz
Продолжительность: 00:53:36

Кодек: FLAC 24/48
Битрейт: Lossless|WEB-DL
Тип рипа: tracks

Треклист:
01. Time To Make A Change (5:57)
02. Going Fishing (4:08)
03. I Need A Creole Woman (6:28)
04. Miss You Baby (3:13)
05. A5 Boogie (6:38)
06. She Don't Know (5:39)
07. Dead Snake Blues (4:36)
08. Louisiana 1927 (5:20)
09. Cain Snake (5:15)
10. We Need Love (6:20)
Общее
Полное имя : H:\Pontchartrain Shakers - Pontchartrain Shakers (2024)\01 - Time To Make A Change.flac
Формат : FLAC
Формат/Информация : Free Lossless Audio Codec
Размер файла : 67,7 Мбайт
Продолжительность : 5 м. 57 с.
Режим общего битрейта : Переменный
Общий поток : 1 591 Кбит/сек
Альбом : Pontchartrain Shakers
Альбом/Исполнитель : Pontchartrain Shakers
Трек : Time To Make A Change
Трек/Положение : 01
Исполнитель : Pontchartrain Shakers
Композитор : Amedee Frederick
Жанр : Blues
Дата записи : 2024 / 2024-04-19
ISRC : USSO42404601
Авторское право : (C) 2024 Southland Records (P) 2024 Southland Records
UPC : 0762247904625
MEDIATYPE : album
ITUNESADVISORY : 1

Аудио
Формат : FLAC
Формат/Информация : Free Lossless Audio Codec
Продолжительность : 5 м. 57 с.
Вид битрейта : Переменный
Битрейт : 1 590 Кбит/сек
Каналы : 2 канала
Channel layout : L R
Частота : 48,0 КГц
Битовая глубина : 24 бит
Метод сжатия : Без потерь
Размер потока : 67,7 Мбайт (100%)
Библиотека кодирования : libFLAC 1.1.0 (2003-01-26)
MD5 of the unencoded content : 00000000000000000000000000000000

Общее
Полное имя : H:\Pontchartrain Shakers - Pontchartrain Shakers (2024)\02 - Going Fishing.flac
Формат : FLAC
Формат/Информация : Free Lossless Audio Codec
Размер файла : 47,0 Мбайт
Продолжительность : 4 м. 7 с.
Режим общего битрейта : Переменный
Общий поток : 1 591 Кбит/сек
Альбом : Pontchartrain Shakers
Альбом/Исполнитель : Pontchartrain Shakers
Трек : Going Fishing
Трек/Положение : 02
Исполнитель : Pontchartrain Shakers
Композитор : Amedee Frederick
Жанр : Blues
Дата записи : 2024 / 2024-04-19
ISRC : USSO42404602
Авторское право : (C) 2024 Southland Records (P) 2024 Southland Records
UPC : 0762247904625
MEDIATYPE : album
ITUNESADVISORY : 1

Аудио
Формат : FLAC
Формат/Информация : Free Lossless Audio Codec
Продолжительность : 4 м. 7 с.
Вид битрейта : Переменный
Битрейт : 1 591 Кбит/сек
Каналы : 2 канала
Channel layout : L R
Частота : 48,0 КГц
Битовая глубина : 24 бит
Метод сжатия : Без потерь
Размер потока : 47,0 Мбайт (100%)
Библиотека кодирования : libFLAC 1.1.0 (2003-01-26)
MD5 of the unencoded content : 00000000000000000000000000000000

Общее
Полное имя : H:\Pontchartrain Shakers - Pontchartrain Shakers (2024)\03 - I Need A Creole Woman.flac
Формат : FLAC
Формат/Информация : Free Lossless Audio Codec
Размер файла : 68,0 Мбайт
Продолжительность : 6 м. 28 с.
Режим общего битрейта : Переменный
Общий поток : 1 469 Кбит/сек
Альбом : Pontchartrain Shakers
Альбом/Исполнитель : Pontchartrain Shakers
Трек : I Need A Creole Woman
Трек/Положение : 03
Исполнитель : Pontchartrain Shakers
Композитор : Amedee Frederick
Жанр : Blues
Дата записи : 2024 / 2024-04-19
ISRC : USSO42404603
Авторское право : (C) 2024 Southland Records (P) 2024 Southland Records
UPC : 0762247904625
MEDIATYPE : album
ITUNESADVISORY : 1

Аудио
Формат : FLAC
Формат/Информация : Free Lossless Audio Codec
Продолжительность : 6 м. 28 с.
Вид битрейта : Переменный
Битрейт : 1 469 Кбит/сек
Каналы : 2 канала
Channel layout : L R
Частота : 48,0 КГц
Битовая глубина : 24 бит
Метод сжатия : Без потерь
Размер потока : 68,0 Мбайт (100%)
Библиотека кодирования : libFLAC 1.1.0 (2003-01-26)
MD5 of the unencoded content : 00000000000000000000000000000000

Общее
Полное имя : H:\Pontchartrain Shakers - Pontchartrain Shakers (2024)\04 - Miss You Baby.flac
Формат : FLAC
Формат/Информация : Free Lossless Audio Codec
Размер файла : 34,9 Мбайт
Продолжительность : 3 м. 13 с.
Режим общего битрейта : Переменный
Общий поток : 1 517 Кбит/сек
Альбом : Pontchartrain Shakers
Альбом/Исполнитель : Pontchartrain Shakers
Трек : Miss You Baby
Трек/Положение : 04
Исполнитель : Pontchartrain Shakers
Композитор : Jojjo Wight
Жанр : Blues
Дата записи : 2024 / 2024-04-19
ISRC : USSO42404604
Авторское право : (C) 2024 Southland Records (P) 2024 Southland Records
UPC : 0762247904625
MEDIATYPE : album
ITUNESADVISORY : 1

Аудио
Формат : FLAC
Формат/Информация : Free Lossless Audio Codec
Продолжительность : 3 м. 13 с.
Вид битрейта : Переменный
Битрейт : 1 517 Кбит/сек
Каналы : 2 канала
Channel layout : L R
Частота : 48,0 КГц
Битовая глубина : 24 бит
Метод сжатия : Без потерь
Размер потока : 34,9 Мбайт (100%)
Библиотека кодирования : libFLAC 1.1.0 (2003-01-26)
MD5 of the unencoded content : 00000000000000000000000000000000

Общее
Полное имя : H:\Pontchartrain Shakers - Pontchartrain Shakers (2024)\05 - A5 Boogie.flac
Формат : FLAC
Формат/Информация : Free Lossless Audio Codec
Размер файла : 76,4 Мбайт
Продолжительность : 6 м. 38 с.
Режим общего битрейта : Переменный
Общий поток : 1 609 Кбит/сек
Альбом : Pontchartrain Shakers
Альбом/Исполнитель : Pontchartrain Shakers
Трек : A5 Boogie
Трек/Положение : 05
Исполнитель : Pontchartrain Shakers
Композитор : Amedee Frederick
Жанр : Blues
Дата записи : 2024 / 2024-04-19
ISRC : USSO42404605
Авторское право : (C) 2024 Southland Records (P) 2024 Southland Records
UPC : 0762247904625
MEDIATYPE : album
ITUNESADVISORY : 1

Аудио
Формат : FLAC
Формат/Информация : Free Lossless Audio Codec
Продолжительность : 6 м. 38 с.
Вид битрейта : Переменный
Битрейт : 1 609 Кбит/сек
Каналы : 2 канала
Channel layout : L R
Частота : 48,0 КГц
Битовая глубина : 24 бит
Метод сжатия : Без потерь
Размер потока : 76,4 Мбайт (100%)
Библиотека кодирования : libFLAC 1.1.0 (2003-01-26)
MD5 of the unencoded content : 00000000000000000000000000000000

Общее
Полное имя : H:\Pontchartrain Shakers - Pontchartrain Shakers (2024)\06 - She Don't Know.flac
Формат : FLAC
Формат/Информация : Free Lossless Audio Codec
Размер файла : 63,2 Мбайт
Продолжительность : 5 м. 39 с.
Режим общего битрейта : Переменный
Общий поток : 1 563 Кбит/сек
Альбом : Pontchartrain Shakers
Альбом/Исполнитель : Pontchartrain Shakers
Трек : She Don't Know
Трек/Положение : 06
Исполнитель : Pontchartrain Shakers
Композитор : Amedee Frederick
Жанр : Blues
Дата записи : 2024 / 2024-04-19
ISRC : USSO42404606
Авторское право : (C) 2024 Southland Records (P) 2024 Southland Records
UPC : 0762247904625
MEDIATYPE : album
ITUNESADVISORY : 1

Аудио
Формат : FLAC
Формат/Информация : Free Lossless Audio Codec
Продолжительность : 5 м. 39 с.
Вид битрейта : Переменный
Битрейт : 1 562 Кбит/сек
Каналы : 2 канала
Channel layout : L R
Частота : 48,0 КГц
Битовая глубина : 24 бит
Метод сжатия : Без потерь
Размер потока : 63,2 Мбайт (100%)
Библиотека кодирования : libFLAC 1.1.0 (2003-01-26)
MD5 of the unencoded content : 00000000000000000000000000000000

Общее
Полное имя : H:\Pontchartrain Shakers - Pontchartrain Shakers (2024)\07 - Dead Snake Blues.flac
Формат : FLAC
Формат/Информация : Free Lossless Audio Codec
Размер файла : 51,3 Мбайт
Продолжительность : 4 м. 36 с.
Режим общего битрейта : Переменный
Общий поток : 1 557 Кбит/сек
Альбом : Pontchartrain Shakers
Альбом/Исполнитель : Pontchartrain Shakers
Трек : Dead Snake Blues
Трек/Положение : 07
Исполнитель : Pontchartrain Shakers
Композитор : Jojjo Wight
Жанр : Blues
Дата записи : 2024 / 2024-04-19
ISRC : USSO42404607
Авторское право : (C) 2024 Southland Records (P) 2024 Southland Records
UPC : 0762247904625
MEDIATYPE : album
ITUNESADVISORY : 1

Аудио
Формат : FLAC
Формат/Информация : Free Lossless Audio Codec
Продолжительность : 4 м. 36 с.
Вид битрейта : Переменный
Битрейт : 1 556 Кбит/сек
Каналы : 2 канала
Channel layout : L R
Частота : 48,0 КГц
Битовая глубина : 24 бит
Метод сжатия : Без потерь
Размер потока : 51,3 Мбайт (100%)
Библиотека кодирования : libFLAC 1.1.0 (2003-01-26)
MD5 of the unencoded content : 00000000000000000000000000000000

Общее
Полное имя : H:\Pontchartrain Shakers - Pontchartrain Shakers (2024)\08 - Louisiana 1927.flac
Формат : FLAC
Формат/Информация : Free Lossless Audio Codec
Размер файла : 57,9 Мбайт
Продолжительность : 5 м. 19 с.
Режим общего битрейта : Переменный
Общий поток : 1 520 Кбит/сек
Альбом : Pontchartrain Shakers
Альбом/Исполнитель : Pontchartrain Shakers
Трек : Louisiana 1927
Трек/Положение : 08
Исполнитель : Pontchartrain Shakers
Композитор : Randy Newman
Жанр : Blues
Дата записи : 2024 / 2024-04-19
ISRC : USSO42404608
Авторское право : (C) 2024 Southland Records (P) 2024 Southland Records
UPC : 0762247904625
MEDIATYPE : album
ITUNESADVISORY : 1

Аудио
Формат : FLAC
Формат/Информация : Free Lossless Audio Codec
Продолжительность : 5 м. 19 с.
Вид битрейта : Переменный
Битрейт : 1 520 Кбит/сек
Каналы : 2 канала
Channel layout : L R
Частота : 48,0 КГц
Битовая глубина : 24 бит
Метод сжатия : Без потерь
Размер потока : 57,9 Мбайт (100%)
Библиотека кодирования : libFLAC 1.1.0 (2003-01-26)
MD5 of the unencoded content : 00000000000000000000000000000000

Общее
Полное имя : H:\Pontchartrain Shakers - Pontchartrain Shakers (2024)\09 - Cain Snake.flac
Формат : FLAC
Формат/Информация : Free Lossless Audio Codec
Размер файла : 57,4 Мбайт
Продолжительность : 5 м. 14 с.
Режим общего битрейта : Переменный
Общий поток : 1 530 Кбит/сек
Альбом : Pontchartrain Shakers
Альбом/Исполнитель : Pontchartrain Shakers
Трек : Cain Snake
Трек/Положение : 09
Исполнитель : Pontchartrain Shakers
Композитор : Amedee Frederick
Жанр : Blues
Дата записи : 2024 / 2024-04-19
ISRC : USSO42404609
Авторское право : (C) 2024 Southland Records (P) 2024 Southland Records
UPC : 0762247904625
MEDIATYPE : album
ITUNESADVISORY : 1

Аудио
Формат : FLAC
Формат/Информация : Free Lossless Audio Codec
Продолжительность : 5 м. 14 с.
Вид битрейта : Переменный
Битрейт : 1 530 Кбит/сек
Каналы : 2 канала
Channel layout : L R
Частота : 48,0 КГц
Битовая глубина : 24 бит
Метод сжатия : Без потерь
Размер потока : 57,4 Мбайт (100%)
Библиотека кодирования : libFLAC 1.1.0 (2003-01-26)
MD5 of the unencoded content : 00000000000000000000000000000000

Общее
Полное имя : H:\Pontchartrain Shakers - Pontchartrain Shakers (2024)\10 - We Need Love.flac
Формат : FLAC
Формат/Информация : Free Lossless Audio Codec
Размер файла : 69,1 Мбайт
Продолжительность : 6 м. 20 с.
Режим общего битрейта : Переменный
Общий поток : 1 524 Кбит/сек
Альбом : Pontchartrain Shakers
Альбом/Исполнитель : Pontchartrain Shakers
Трек : We Need Love
Трек/Положение : 10
Исполнитель : Pontchartrain Shakers
Композитор : Amedee Frederick
Жанр : Blues
Дата записи : 2024 / 2024-04-19
ISRC : USSO42404610
Авторское право : (C) 2024 Southland Records (P) 2024 Southland Records
UPC : 0762247904625
MEDIATYPE : album
ITUNESADVISORY : 1

Аудио
Формат : FLAC
Формат/Информация : Free Lossless Audio Codec
Продолжительность : 6 м. 20 с.
Вид битрейта : Переменный
Битрейт : 1 524 Кбит/сек
Каналы : 2 канала
Channel layout : L R
Частота : 48,0 КГц
Битовая глубина : 24 бит
Метод сжатия : Без потерь
Размер потока : 69,1 Мбайт (100%)
Библиотека кодирования : libFLAC 1.1.0 (2003-01-26)
MD5 of the unencoded content : 00000000000000000000000000000000

Общее
Полное имя : H:\Pontchartrain Shakers - Pontchartrain Shakers (2024)\Cover.jpg
Формат : JPEG
Размер файла : 580 Кбайт

Изображения
Формат : JPEG
Ширина : 1 500 пикселей
Высота : 1 500 пикселей
Цветовое пространство : YUV
Субдискретизация насыщенности : 4:4:4
Битовая глубина : 8 бит
Метод сжатия : С потерями
Размер потока : 580 Кбайт (100%)
ColorSpace_ICC : RGB

Общее
Полное имя : H:\Pontchartrain Shakers - Pontchartrain Shakers (2024)\foo_dr.txt
Размер файла : 1,35 Кбайт
Время раздачи: 24\7 на раздачи которым больше недели, не возвращаюсь (минимум до появления первых 3-5 скачавших)
[NNMClub.to]_Pontchartrain Shakers - Pontchartrain Shakers (2024).torrent
 Торрент:   Зарегистрирован
 
Зарегистрируйтесь и скачайте торрент!
12.4 KB

Примагнититься
 Зарегистрирован:   22 Апр 2024 10:59:16
 Размер:   594 MB  (
 Рейтинг:    (Голосов: 2)
 Поблагодарили:   35
 Проверка:   Оформление проверено модератором 22 Апр 2024 13:48:01
Как cкачать  ·  Как раздать  ·  Правильно оформить  ·  Поднять ратио!  
Показать сообщения:   
Начать новую тему   Ответить на тему    Торрент-трекер NNM-Club -> HD Audio и Многоканальная Музыка -> WEB-DL-Audio Часовой пояс: GMT + 3
Страница 1 из 1