Классический форум-трекер
canvas not supported
Нас вместе: 4 232 961

Praying Mantis - Defiance (2024) [FLAC 24/96|Lossless|WEB-DL|tracks] <Hard Rock>


 
 
RSS
Начать новую тему   Ответить на тему    Торрент-трекер NNM-Club -> HD Audio и Многоканальная Музыка -> WEB-DL-Audio
Автор Сообщение
krochka1 ®
RG Music
Стаж: 3 года 5 мес.
Сообщений: 2608
Ratio: 418.146
Поблагодарили: 103679
100%
Praying Mantis - Defiance (2024)
Жанр: Hard Rock
Издание: Frontiers Records s.r.l.
Источник: Qobuz
Продолжительность: 00:46:46

Кодек: FLAC 24/96
Битрейт: Lossless|WEB-DL
Тип рипа: tracks

Треклист:
01. From The Start (4:27)
02. Defiance (4:06)
03. Feelin' Lucky (3:46)
04. I Surrender (3:40)
05. Forever In My Heart (4:33)
06. Never Can Say Goodbye (4:10)
07. One Heart (4:32)
08. Give It Up (3:35)
09. Nightswim (3:42)
10. Standing Tall (5:18)
11. Let's See (4:56)
Общее
Полное имя : H:\Praying Mantis - Defiance (2024)\01 - From The Start.flac
Формат : FLAC
Формат/Информация : Free Lossless Audio Codec
Размер файла : 95,4 Мбайт
Продолжительность : 4 м. 26 с.
Режим общего битрейта : Переменный
Общий поток : 3 001 Кбит/сек
Альбом : Defiance
Альбом/Исполнитель : Praying Mantis
Трек : From The Start
Трек/Положение : 01
Исполнитель : Praying Mantis
Композитор : Chris Troy
Жанр : Hard Rock
Дата записи : 2024 / 2024-04-19
ISRC : ITG272400333
Авторское право : (C) 2024 Frontiers Records s.r.l. (P) 2024 Frontiers Records s.r.l.
UPC : 0197190871777
MEDIATYPE : album
ITUNESADVISORY : 1

Аудио
Формат : FLAC
Формат/Информация : Free Lossless Audio Codec
Продолжительность : 4 м. 26 с.
Вид битрейта : Переменный
Битрейт : 3 001 Кбит/сек
Каналы : 2 канала
Channel layout : L R
Частота : 96,0 КГц
Битовая глубина : 24 бит
Метод сжатия : Без потерь
Размер потока : 95,4 Мбайт (100%)
Библиотека кодирования : libFLAC 1.1.0 (2003-01-26)
MD5 of the unencoded content : 00000000000000000000000000000000

Общее
Полное имя : H:\Praying Mantis - Defiance (2024)\02 - Defiance.flac
Формат : FLAC
Формат/Информация : Free Lossless Audio Codec
Размер файла : 90,9 Мбайт
Продолжительность : 4 м. 6 с.
Режим общего битрейта : Переменный
Общий поток : 3 094 Кбит/сек
Альбом : Defiance
Альбом/Исполнитель : Praying Mantis
Трек : Defiance
Трек/Положение : 02
Исполнитель : Praying Mantis
Композитор : Chris Troy
Жанр : Hard Rock
Дата записи : 2024 / 2024-04-19
ISRC : ITG272400334
Авторское право : (C) 2024 Frontiers Records s.r.l. (P) 2024 Frontiers Records s.r.l.
UPC : 0197190871777
MEDIATYPE : album
ITUNESADVISORY : 1

Аудио
Формат : FLAC
Формат/Информация : Free Lossless Audio Codec
Продолжительность : 4 м. 6 с.
Вид битрейта : Переменный
Битрейт : 3 094 Кбит/сек
Каналы : 2 канала
Channel layout : L R
Частота : 96,0 КГц
Битовая глубина : 24 бит
Метод сжатия : Без потерь
Размер потока : 90,9 Мбайт (100%)
Библиотека кодирования : libFLAC 1.1.0 (2003-01-26)
MD5 of the unencoded content : 00000000000000000000000000000000

Общее
Полное имя : H:\Praying Mantis - Defiance (2024)\03 - Feelin' Lucky.flac
Формат : FLAC
Формат/Информация : Free Lossless Audio Codec
Размер файла : 79,6 Мбайт
Продолжительность : 3 м. 45 с.
Режим общего битрейта : Переменный
Общий поток : 2 958 Кбит/сек
Альбом : Defiance
Альбом/Исполнитель : Praying Mantis
Трек : Feelin' Lucky
Трек/Положение : 03
Исполнитель : Praying Mantis
Композитор : Chris Troy
Жанр : Hard Rock
Дата записи : 2024 / 2024-04-19
ISRC : ITG272400335
Авторское право : (C) 2024 Frontiers Records s.r.l. (P) 2024 Frontiers Records s.r.l.
UPC : 0197190871777
MEDIATYPE : album
ITUNESADVISORY : 1

Аудио
Формат : FLAC
Формат/Информация : Free Lossless Audio Codec
Продолжительность : 3 м. 45 с.
Вид битрейта : Переменный
Битрейт : 2 958 Кбит/сек
Каналы : 2 канала
Channel layout : L R
Частота : 96,0 КГц
Битовая глубина : 24 бит
Метод сжатия : Без потерь
Размер потока : 79,6 Мбайт (100%)
Библиотека кодирования : libFLAC 1.1.0 (2003-01-26)
MD5 of the unencoded content : 00000000000000000000000000000000

Общее
Полное имя : H:\Praying Mantis - Defiance (2024)\04 - I Surrender.flac
Формат : FLAC
Формат/Информация : Free Lossless Audio Codec
Размер файла : 80,5 Мбайт
Продолжительность : 3 м. 40 с.
Режим общего битрейта : Переменный
Общий поток : 3 068 Кбит/сек
Альбом : Defiance
Альбом/Исполнитель : Praying Mantis
Трек : I Surrender
Трек/Положение : 04
Исполнитель : Praying Mantis
Композитор : Russ Ballard
Жанр : Hard Rock
Дата записи : 2024 / 2024-04-19
ISRC : ITG272400336
Авторское право : (C) 2024 Frontiers Records s.r.l. (P) 2024 Frontiers Records s.r.l.
UPC : 0197190871777
MEDIATYPE : album
ITUNESADVISORY : 1

Аудио
Формат : FLAC
Формат/Информация : Free Lossless Audio Codec
Продолжительность : 3 м. 40 с.
Вид битрейта : Переменный
Битрейт : 3 068 Кбит/сек
Каналы : 2 канала
Channel layout : L R
Частота : 96,0 КГц
Битовая глубина : 24 бит
Метод сжатия : Без потерь
Размер потока : 80,5 Мбайт (100%)
Библиотека кодирования : libFLAC 1.1.0 (2003-01-26)
MD5 of the unencoded content : 00000000000000000000000000000000

Общее
Полное имя : H:\Praying Mantis - Defiance (2024)\05 - Forever In My Heart.flac
Формат : FLAC
Формат/Информация : Free Lossless Audio Codec
Размер файла : 94,1 Мбайт
Продолжительность : 4 м. 32 с.
Режим общего битрейта : Переменный
Общий поток : 2 892 Кбит/сек
Альбом : Defiance
Альбом/Исполнитель : Praying Mantis
Трек : Forever In My Heart
Трек/Положение : 05
Исполнитель : Praying Mantis
Композитор : Chris Troy
Жанр : Hard Rock
Дата записи : 2024 / 2024-04-19
ISRC : ITG272400337
Авторское право : (C) 2024 Frontiers Records s.r.l. (P) 2024 Frontiers Records s.r.l.
UPC : 0197190871777
MEDIATYPE : album
ITUNESADVISORY : 1

Аудио
Формат : FLAC
Формат/Информация : Free Lossless Audio Codec
Продолжительность : 4 м. 32 с.
Вид битрейта : Переменный
Битрейт : 2 892 Кбит/сек
Каналы : 2 канала
Channel layout : L R
Частота : 96,0 КГц
Битовая глубина : 24 бит
Метод сжатия : Без потерь
Размер потока : 94,1 Мбайт (100%)
Библиотека кодирования : libFLAC 1.1.0 (2003-01-26)
MD5 of the unencoded content : 00000000000000000000000000000000

Общее
Полное имя : H:\Praying Mantis - Defiance (2024)\06 - Never Can Say Goodbye.flac
Формат : FLAC
Формат/Информация : Free Lossless Audio Codec
Размер файла : 88,1 Мбайт
Продолжительность : 4 м. 10 с.
Режим общего битрейта : Переменный
Общий поток : 2 955 Кбит/сек
Альбом : Defiance
Альбом/Исполнитель : Praying Mantis
Трек : Never Can Say Goodbye
Трек/Положение : 06
Исполнитель : Praying Mantis
Композитор : Chris Troy
Жанр : Hard Rock
Дата записи : 2024 / 2024-04-19
ISRC : ITG272400338
Авторское право : (C) 2024 Frontiers Records s.r.l. (P) 2024 Frontiers Records s.r.l.
UPC : 0197190871777
MEDIATYPE : album
ITUNESADVISORY : 1

Аудио
Формат : FLAC
Формат/Информация : Free Lossless Audio Codec
Продолжительность : 4 м. 10 с.
Вид битрейта : Переменный
Битрейт : 2 955 Кбит/сек
Каналы : 2 канала
Channel layout : L R
Частота : 96,0 КГц
Битовая глубина : 24 бит
Метод сжатия : Без потерь
Размер потока : 88,1 Мбайт (100%)
Библиотека кодирования : libFLAC 1.1.0 (2003-01-26)
MD5 of the unencoded content : 00000000000000000000000000000000

Общее
Полное имя : H:\Praying Mantis - Defiance (2024)\07 - One Heart.flac
Формат : FLAC
Формат/Информация : Free Lossless Audio Codec
Размер файла : 95,0 Мбайт
Продолжительность : 4 м. 31 с.
Режим общего битрейта : Переменный
Общий поток : 2 936 Кбит/сек
Альбом : Defiance
Альбом/Исполнитель : Praying Mantis
Трек : One Heart
Трек/Положение : 07
Исполнитель : Praying Mantis
Композитор : Chris Troy
Жанр : Hard Rock
Дата записи : 2024 / 2024-04-19
ISRC : ITG272400339
Авторское право : (C) 2024 Frontiers Records s.r.l. (P) 2024 Frontiers Records s.r.l.
UPC : 0197190871777
MEDIATYPE : album
ITUNESADVISORY : 1

Аудио
Формат : FLAC
Формат/Информация : Free Lossless Audio Codec
Продолжительность : 4 м. 31 с.
Вид битрейта : Переменный
Битрейт : 2 936 Кбит/сек
Каналы : 2 канала
Channel layout : L R
Частота : 96,0 КГц
Битовая глубина : 24 бит
Метод сжатия : Без потерь
Размер потока : 95,0 Мбайт (100%)
Библиотека кодирования : libFLAC 1.1.0 (2003-01-26)
MD5 of the unencoded content : 00000000000000000000000000000000

Общее
Полное имя : H:\Praying Mantis - Defiance (2024)\08 - Give It Up.flac
Формат : FLAC
Формат/Информация : Free Lossless Audio Codec
Размер файла : 77,3 Мбайт
Продолжительность : 3 м. 35 с.
Режим общего битрейта : Переменный
Общий поток : 3 014 Кбит/сек
Альбом : Defiance
Альбом/Исполнитель : Praying Mantis
Трек : Give It Up
Трек/Положение : 08
Исполнитель : Praying Mantis
Композитор : Chris Troy
Жанр : Hard Rock
Дата записи : 2024 / 2024-04-19
ISRC : ITG272400340
Авторское право : (C) 2024 Frontiers Records s.r.l. (P) 2024 Frontiers Records s.r.l.
UPC : 0197190871777
MEDIATYPE : album
ITUNESADVISORY : 1

Аудио
Формат : FLAC
Формат/Информация : Free Lossless Audio Codec
Продолжительность : 3 м. 35 с.
Вид битрейта : Переменный
Битрейт : 3 014 Кбит/сек
Каналы : 2 канала
Channel layout : L R
Частота : 96,0 КГц
Битовая глубина : 24 бит
Метод сжатия : Без потерь
Размер потока : 77,3 Мбайт (100%)
Библиотека кодирования : libFLAC 1.1.0 (2003-01-26)
MD5 of the unencoded content : 00000000000000000000000000000000

Общее
Полное имя : H:\Praying Mantis - Defiance (2024)\09 - Nightswim.flac
Формат : FLAC
Формат/Информация : Free Lossless Audio Codec
Размер файла : 73,0 Мбайт
Продолжительность : 3 м. 42 с.
Режим общего битрейта : Переменный
Общий поток : 2 758 Кбит/сек
Альбом : Defiance
Альбом/Исполнитель : Praying Mantis
Трек : Nightswim
Трек/Положение : 09
Исполнитель : Praying Mantis
Композитор : Andy Burgess
Жанр : Hard Rock
Дата записи : 2024 / 2024-04-19
ISRC : ITG272400341
Авторское право : (C) 2024 Frontiers Records s.r.l. (P) 2024 Frontiers Records s.r.l.
UPC : 0197190871777
MEDIATYPE : album
ITUNESADVISORY : 1

Аудио
Формат : FLAC
Формат/Информация : Free Lossless Audio Codec
Продолжительность : 3 м. 42 с.
Вид битрейта : Переменный
Битрейт : 2 758 Кбит/сек
Каналы : 2 канала
Channel layout : L R
Частота : 96,0 КГц
Битовая глубина : 24 бит
Метод сжатия : Без потерь
Размер потока : 73,0 Мбайт (100%)
Библиотека кодирования : libFLAC 1.1.0 (2003-01-26)
MD5 of the unencoded content : 00000000000000000000000000000000

Общее
Полное имя : H:\Praying Mantis - Defiance (2024)\10 - Standing Tall.flac
Формат : FLAC
Формат/Информация : Free Lossless Audio Codec
Размер файла : 114 Мбайт
Продолжительность : 5 м. 18 с.
Режим общего битрейта : Переменный
Общий поток : 3 006 Кбит/сек
Альбом : Defiance
Альбом/Исполнитель : Praying Mantis
Трек : Standing Tall
Трек/Положение : 10
Исполнитель : Praying Mantis
Композитор : Tino Troy
Жанр : Hard Rock
Дата записи : 2024 / 2024-04-19
ISRC : ITG272400342
Авторское право : (C) 2024 Frontiers Records s.r.l. (P) 2024 Frontiers Records s.r.l.
UPC : 0197190871777
MEDIATYPE : album
ITUNESADVISORY : 1

Аудио
Формат : FLAC
Формат/Информация : Free Lossless Audio Codec
Продолжительность : 5 м. 18 с.
Вид битрейта : Переменный
Битрейт : 3 006 Кбит/сек
Каналы : 2 канала
Channel layout : L R
Частота : 96,0 КГц
Битовая глубина : 24 бит
Метод сжатия : Без потерь
Размер потока : 114 Мбайт (100%)
Библиотека кодирования : libFLAC 1.1.0 (2003-01-26)
MD5 of the unencoded content : 00000000000000000000000000000000

Общее
Полное имя : H:\Praying Mantis - Defiance (2024)\11 - Let's See.flac
Формат : FLAC
Формат/Информация : Free Lossless Audio Codec
Размер файла : 105 Мбайт
Продолжительность : 4 м. 56 с.
Режим общего битрейта : Переменный
Общий поток : 2 974 Кбит/сек
Альбом : Defiance
Альбом/Исполнитель : Praying Mantis
Трек : Let's See
Трек/Положение : 11
Исполнитель : Praying Mantis
Композитор : Chris Troy
Жанр : Hard Rock
Дата записи : 2024 / 2024-04-19
ISRC : ITG272400343
Авторское право : (C) 2024 Frontiers Records s.r.l. (P) 2024 Frontiers Records s.r.l.
UPC : 0197190871777
MEDIATYPE : album
ITUNESADVISORY : 1

Аудио
Формат : FLAC
Формат/Информация : Free Lossless Audio Codec
Продолжительность : 4 м. 56 с.
Вид битрейта : Переменный
Битрейт : 2 974 Кбит/сек
Каналы : 2 канала
Channel layout : L R
Частота : 96,0 КГц
Битовая глубина : 24 бит
Метод сжатия : Без потерь
Размер потока : 105 Мбайт (100%)
Библиотека кодирования : libFLAC 1.1.0 (2003-01-26)
MD5 of the unencoded content : 00000000000000000000000000000000

Общее
Полное имя : H:\Praying Mantis - Defiance (2024)\Cover.jpg
Формат : JPEG
Размер файла : 610 Кбайт

Изображения
Формат : JPEG
Ширина : 1 500 пикселей
Высота : 1 500 пикселей
Цветовое пространство : YUV
Субдискретизация насыщенности : 4:4:4
Битовая глубина : 8 бит
Метод сжатия : С потерями
Размер потока : 610 Кбайт (100%)

Общее
Полное имя : H:\Praying Mantis - Defiance (2024)\foo_dr.txt
Размер файла : 1,37 Кбайт
Время раздачи: 24\7 на раздачи которым больше недели, не возвращаюсь (минимум до появления первых 3-5 скачавших)
[NNMClub.to]_Praying Mantis - Defiance (2024).torrent
 Торрент:   Зарегистрирован
 
Зарегистрируйтесь и скачайте торрент!
20.2 KB

Примагнититься
 Зарегистрирован:   22 Апр 2024 11:12:38
 Размер:   994 MB  (
 Рейтинг:    (Голосов: 2)
 Поблагодарили:   35
 Проверка:   Оформление проверено модератором 22 Апр 2024 13:47:42
Как cкачать  ·  Как раздать  ·  Правильно оформить  ·  Поднять ратио!  
Показать сообщения:   
Начать новую тему   Ответить на тему    Торрент-трекер NNM-Club -> HD Audio и Многоканальная Музыка -> WEB-DL-Audio Часовой пояс: GMT + 3
Страница 1 из 1